Кто вы, мистер Рид? (Виктор Беляков) [2004, Документальный детектив, IPTVRip]


Статистика раздачи [Обновить пиров]
Размер:  699 MB   |    Зарегистрирован:  8 месяцев 18 дней   |    Скачан:  0 раз

Полного источника не было: Никогда

 
   
 
 
 

[Цитировать]

Кто вы, мистер Рид?
Дата/Год выпуска: 2004
Страна: Россия, "Вертов и Ко"
Жанр: Документальный детектив
Продолжительность: 00:43:55
Перевод: Не требуется
Русские субтитры: нет
Режиссер: Виктор Беляков
Телеканал: 24 DOC
Описание: Потрясения эпохи перестройки и гласности заслонили в памяти современников историю яркой и печальной судьбы знаменитого некогда американского певца и актёра Дина Рида. Но многие вспомнят, что его загадочная смерть а своё время породила множество слухов. Никто не верил, что крепкий, физически развитый человек мог просто утонуть. В таком случае - кто его убрал? В фильме Виктора Белякова рассматривается несколько версий гибели Дина Рида, которые подтверждают или опровергают свидетели.
Сэмпл: http://multi-up.com/1060585
качество: IPTVRip
формат: AVI
Видео: 720x400 (1.80:1), 25 fps, XviD MPEG-4 ~2023 kbps avg, 0.28 bit/pixel
Аудио: 48 kHz, AC3 Dolby Digital, 2/0 (L,R) Surround Encoded ch, ~192 kbps

MediaInfo

Общее
Полное имя : W:\Pshichko66\Na zapis'\Документальные фильмы\Kto Vy, mister Rid.avi
Формат : AVI
Формат/Информация : Audio Video Interleave
Размер файла : 699 Мбайт
Продолжительность : 43 м.
Общий поток : 2225 Кбит/сек
Программа кодирования : VirtualDubMod 1.5.10.2 (build 2540/release)
Библиотека кодирования : VirtualDubMod build 2540/release
Видео
Идентификатор : 0
Формат : MPEG-4 Visual
Профиль формата : Advanced Simple@L5
Параметр BVOP формата : 2
Параметр QPel формата : Нет
Параметр GMC формата : Без точки перехода
Параметр матрицы формата : Выборочная
Идентификатор кодека : XVID
Идентификатор кодека/Подсказка : XviD
Продолжительность : 43 м.
Битрейт : 2023 Кбит/сек
Ширина : 720 пикселей
Высота : 400 пикселей
Соотношение сторон : 16:9
Частота кадров : 25,000 кадров/сек
Цветовое пространство : YUV
Субдискретизация насыщенности : 4:2:0
Битовая глубина : 8 бит
Тип развёртки : Прогрессивная
Метод сжатия : С потерями
Бит/(Пиксели*Кадры) : 0.281
Размер потока : 636 Мбайт (91%)
Библиотека кодирования : XviD 73
Аудио
Идентификатор : 1
Формат : AC-3
Формат/Информация : Audio Coding 3
Профиль формата : Dolby Digital
Расширение режима : CM (complete main)
Параметр Endianness формата : Big
Идентификатор кодека : 2000
Продолжительность : 43 м.
Вид битрейта : Постоянный
Битрейт : 192 Кбит/сек
Каналы : 2 канала
Расположение каналов : Front: L R
Частота : 48,0 КГц
Битовая глубина : 16 бит
Метод сжатия : С потерями
Размер потока : 60,3 Мбайт (9%)
Выравнивание : Разделение по промежуткам
Продолжительность промежутка : 40 мс. (1,00 видеокадр)
Время предзагрузки промежутка : 500 мс.
[teatrix.ru].t21883.torrent 
Торрент: Зарегистрирован [ 2016-03-20 12:51 ] · 08495B7FBE1E52B3292E670A56D227C7F9D9723A

Скачать .torrent

Скачать

14 KB

Статус: проверено
Скачан: 0 раз
Размер: 699 MB
terms.php



Быстрый ответ

Имя:

      
Для отправки сообщений необходимо включить JavaScript
Показать сообщения:    

Текущее время: 07-Дек 17:31

Часовой пояс: UTC + 3


Вы можете начинать темы
Вы можете отвечать на сообщения
Вы не можете редактировать свои сообщения
Вы не можете удалять свои сообщения
Вы не можете голосовать в опросах
Вы не можете прикреплять файлы к сообщениям
Вы можете скачивать файлы