[TR24][OF] Gustav Mahler: Symphony No. 5 - Berliner Philharmoniker, Claudio Abbado - 1993/2015 (Classical)


Статистика раздачи [Обновить пиров]
Размер:  624 MB   |    Зарегистрирован:  8 месяцев 17 дней   |    Скачан:  0 раз

Полного источника не было: Никогда

 
   
 
 
 

[Цитировать]

Gustav Mahler
Symphony No. 5
Berliner Philharmoniker & Claudio Abbado
-Год издания/переиздания: 1993/2015
Жанр: Classical | Издатель: Deutsche Grammophon
Продолжительность: 01:09:29
Наличие сканов: Sleeve, Digital Booklet- -Контейнер: FLAC (*.flac) | Тип рипа: tracks
Разрядность: 24bit / 44.1kHz | Количество каналов: 2.0
-Треклист
Gustav Mahler (1860-1911)
Symphony No. 5 in C sharp minor
Part One
01. Movement I: Trauermarsch. In gemessenem Schritt. Streng. Wie ein Kondukt (12:36)
02. Movement II: Sturmisch bewegt. Mit gro?ter Vehemenz (14:46)
Part Two
03. Movement III: Scherzo. Kraftig, nicht zu schnell (17:26)
Part Three
04. Movement IV: Adagietto. Sehr langsam (9:01)
05. Movement V: Rondo - Finale. Allegro (15:40)

О релизе


The Fifth Symphony (1901-02) itself demonstrates Mahler’s principle of “progressive tonality,” moving from a Funeral March to a jubilant sense of triumph in D Major. In the course this monumental score, divided into three parts, Mahler juxtaposes the most extreme emotions and musical forms: learned counterpoint and simple country laendler, vociferous anger and grotesque fantasies, and grateful love and appreciation of Nature and human affection.
If martial energy and resentment dominate the first two movements, a blissful or triumphant note emerges from the chorale motifs later in the score, even anticipated, in the stormy second movement, when pantheistic and visionary elements in the brass interrupt the dreadful impetus of the music. In a letter to his wife, Alma, Mahler expressed his own reaction to the originally-scored brass turbulence: “Heavens, what is the public to make of this chaos in which new worlds are forever being engendered, only to crumble into ruin the next moment? What are they to say to this primeval music, this foaming, roaring, raging sea of sound, to these dancing stars, to these breathtaking, iridescent, and flashing breakers?”
„Listening to the recording . . . I felt aware of a powerfully unifying, interpretive force that was pushing and pulling the music in the most subtle, natural way. Realizing that this must be the 'silent' personality of the conductor, I immediately cemented my reactions to the name 'Claudio Abbado'. The link had been made and I was a fan from that day on, without really knowing it.“ --Dinuk Wijeratne, Musical Toronto
Personnel:
Berliner Philharmoniker
Claudio Abbado, conductor
Recorded: Berlin, Philharmonie, 5/1993

ОтчётыДинамический диапазон

foobar2000 1.3.8 / Dynamic Range Meter 1.1.1
log date: 2015-07-30 12:57:23
--------------------------------------------------------------------------------
Analyzed: Claudio Abbado, Berliner Philharmoniker / Mahler: Symphony No.5
--------------------------------------------------------------------------------
DR Peak RMS Duration Track
--------------------------------------------------------------------------------
DR16 -0.05 dB -22.78 dB 12:36 01-Symphony No. 5 in C sharp minor - Part One, Movement I: Trauermarsch. In gemessenem Schritt. Streng. Wie ein Kondukt
DR16 -0.32 dB -21.41 dB 14:46 02-Symphony No. 5 in C sharp minor - Part One, Movement II: Stürmisch bewegt. Mit größter Vehemenz
DR18 -0.51 dB -25.21 dB 17:26 03-Symphony No. 5 in C sharp minor - Part Two, Movement III: Scherzo. Kräftig, nicht zu schnell
DR13 -9.18 dB -29.85 dB 9:01 04-Symphony No. 5 in C sharp minor - Part Three, Movement IV: Adagietto. Sehr langsam
DR17 -0.01 dB -22.62 dB 15:40 05-Symphony No. 5 in C sharp minor - Part Three, Movement V: Rondo - Finale. Allegro
--------------------------------------------------------------------------------
Number of tracks: 5
Official DR value: DR16
Samplerate: 44100 Hz
Channels: 2
Bits per sample: 24
Bitrate: 1279 kbps
Codec: FLAC
================================================================================

Скриншот спектра частот

Доп. информация

При скачивании, если необходимо, переименуйте папку, в которой будет находиться альбомБольшая просьба к скачавшим поддерживать раздачу! Помогайте другим, ведь вам тоже может понадобиться помощь!Не забываем говорить "Спасибо"!Комментарии приветствуются!
Claudio Abbado Hi-Res
[teatrix.ru].t21885.torrent 
Торрент: Зарегистрирован [ 2016-03-20 12:51 ] · D49B91F7E78C2018177F776FC7F65F3C95342050

Скачать .torrent

Скачать

13 KB

Статус: проверено
Скачан: 0 раз
Размер: 624 MB
terms.php



Быстрый ответ

Имя:

      
Для отправки сообщений необходимо включить JavaScript
Показать сообщения:    

Текущее время: 06-Дек 22:49

Часовой пояс: UTC + 3


Вы можете начинать темы
Вы можете отвечать на сообщения
Вы не можете редактировать свои сообщения
Вы не можете удалять свои сообщения
Вы не можете голосовать в опросах
Вы не можете прикреплять файлы к сообщениям
Вы можете скачивать файлы