Сугата Сансиро. Сага о дзюдо 2 / Гений дзюдо 2 / Легенда о великом мастере дзюдо 2 / Zoku Sugata Sanshiro / Judo Saga II (Акира Куросава / Akira Kurosawa) [1945, Япония, приключения, драма, экранизация, DVB-AVC] MVO (Kino Polska)


Статистика раздачи [Обновить пиров]
Размер:  715 MB   |    Зарегистрирован:  8 месяцев 20 дней   |    Скачан:  0 раз

Полного источника не было: Никогда

 
   
 
 
 

[Цитировать]

Сугата Сансиро. Сага о дзюдо 2
Zoku Sugata Sanshirô- Страна: Япония
Жанр: приключения, драма, экранизация
Год выпуска: 1945
Продолжительность: 01:18:34Перевод: Профессиональный (многоголосый закадровый) по заказу Kino Polska на производственно-технической базе Студии "Акцент"
Cубтитры: нет
Режиссер: Акира Куросава / Akira Kurosawa
В ролях: Сусуму Фудзита, Дэендзиро Окоти, Такаси Симура, Юкико Тодороки
Описание: По мотивам романа Цунэо Томита / Tsuneo Tomita "Сугата Сансиро / Sugata Sanshirô".
Продолжение похождений отважного дзюдоиста по имени Сугата Сансиро. На этот раз ему предстоит побороть новых соперников, включая белокожего волосатого боксёра, внешне, по мнению японцев, сильно похожего на обезьяну. Но герой сможет побороть всех противников, потому что его сила заключается не в ловкости тела, а в крепости духа.
Доп. информация: Filmbox Arthouse IPTV

Качество видео: DVB-AVC
Формат видео: MKV
Видео: AVC (H.264), 720x576@1024x576 (16:9), 25 fps, ~1119 kbps avg, 0.108 bit/pixel
Аудио: MPEG Audio 2, 2 ch, 48 kHz, ~128.00 kbps avg

MediaInfo

Общее
Уникальный идентификатор : 172915581756780361661691164380086591344 (0x821654659FA0B7829F4F9C428D4ADF70)
Полное имя : F:\My Torrents 3\[apreder]Zoku_Sugata_Sanshiro(1945)DVB.mkv
Формат : Matroska
Версия формата : Version 2
Размер файла : 715 Мбайт
Продолжительность : 1 ч. 18 м.
Общий поток : 1272 Кбит/сек
Дата кодирования : UTC 2015-07-30 14:14:35
Программа кодирования : mkvmerge v8.2.0 ('World of Adventure') 64bit
Библиотека кодирования : libebml v1.3.1 + libmatroska v1.4.2
Attachements : cover.jpg / cover_small.jpg
Видео
Идентификатор : 2
Формат : AVC
Формат/Информация : Advanced Video Codec
Профиль формата : Main@L3
Параметр CABAC формата : Да
Параметр ReFrames формата : 3 кадра
Идентификатор кодека : V_MPEG4/ISO/AVC
Продолжительность : 1 ч. 18 м.
Битрейт : 1119 Кбит/сек
Ширина : 720 пикселей
Высота : 576 пикселей
Соотношение сторон : 16:9
Соотношение сторон в оригинале : 16:9
Режим частоты кадров : Постоянный
Частота кадров : 25,000 кадров/сек
Стандарт вещания : Component
Цветовое пространство : YUV
Субдискретизация насыщенности : 4:2:0
Битовая глубина : 8 бит
Тип развёртки : Прогрессивная
Порядок развёртки : Верхнее поле первое
Бит/(Пиксели*Кадры) : 0.108
Размер потока : 629 Мбайт (88%)
Default : Да
Forced : Нет
colour_range : Limited
Основные цвета : BT.601 PAL
Характеристики трансфера : BT.470 System B, BT.470 System G
Коэффициенты матрицы : BT.601
Аудио
Идентификатор : 1
Формат : MPEG Audio
Версия формата : Version 1
Профиль формата : Layer 2
Идентификатор кодека : A_MPEG/L2
Идентификатор кодека/Подсказка : MP2
Продолжительность : 1 ч. 18 м.
Вид битрейта : Постоянный
Битрейт : 128 Кбит/сек
Каналы : 2 канала
Частота : 48,0 КГц
Метод сжатия : С потерями
Задержка видео : -19 мс.
Размер потока : 71,9 Мбайт (10%)
Язык : Russian
Default : Да
Forced : Нет

Скриншот c названием фильма

Скриншоты


Резервные скриншоты


-[2'505]
[teatrix.ru].t21888.torrent 
Торрент: Зарегистрирован [ 2016-03-20 12:50 ] · AE0FC86798DBDE7F24F3AE4C3807303114ED373C

Скачать .torrent

Скачать

14 KB

Статус: проверено
Скачан: 0 раз
Размер: 715 MB
terms.php



Быстрый ответ

Имя:

      
Для отправки сообщений необходимо включить JavaScript
Показать сообщения:    

Текущее время: 10-Дек 00:15

Часовой пояс: UTC + 3


Вы можете начинать темы
Вы можете отвечать на сообщения
Вы не можете редактировать свои сообщения
Вы не можете удалять свои сообщения
Вы не можете голосовать в опросах
Вы не можете прикреплять файлы к сообщениям
Вы можете скачивать файлы