Одержимость / Наваждение / Ossessione (Лукино Висконти / Luchino Visconti) [1943, Италия, драма, экранизация, DVB-AVC] MVO (Kino Polska)


Статистика раздачи [Обновить пиров]
Размер:  1.03 GB   |    Зарегистрирован:  8 месяцев 19 дней   |    Скачан:  2 раза

Полного источника не было: 1 месяц 11 дней

 
   
 
 
 

[Цитировать]

Одержимость
Ossessione- Страна: Италия
Жанр: драма, экранизация
Год выпуска: 1943
Продолжительность: 02:14:15Перевод: Профессиональный (многоголосый закадровый) по заказу Kino Polska на производственно-технической базе Студии "Акцент"
Cубтитры: нет
Режиссер: Лукино Висконти / Luchino Visconti
В ролях: Клара Каламаи / Clara Calamai (Giovanna Bragana), Массимо Джиротти / Massimo Girotti (Gino Costa), Диа Кристани / Dhia Cristiani (Anita)
Описание: По роману Джеймса М. Кейна / James M. Cain "Почтальон всегда звонит дважды / The Postman Always Rings Twice" (1934). Сценарий: Лукино Висконти, Джузеппе де Сантис, Альберто Моравиа, Антонио Пьетранджели.
Это история любви, адюльтера и убийства в итальянской провинции. Джино, бродягу и кочевника по натуре, рассматривающего любую привязанность как обузу, жизнь сталкивает с Джованной и ее мужем, отвратительным до гротеска стариком. Историю этой парочки можно рассказать с первого взгляда — молодая, красивая, страстная вышла замуж ради денег. Вскоре у Джованны при взгляде на чужака уже сыплются искры — в воздухе пахнет кровью…
Доп. информация: Filmbox Arthouse IPTV. В отличие от имеющихся на трекере раздач с DVO (Кармен Видео) здесь другой перевод MVO (Kino Polska).
Награда: специальное упоминание National Society of Film Critics Awards, USA 1977.

Качество видео: DVB-AVC
Формат видео: MKV
Видео: AVC (H.264), 720x576@1024x576 (16:9), 25 fps, ~952 kbps avg, 0.092 bit/pixel
Аудио: MPEG Audio 2, 2 ch, 48 kHz, ~128.00 kbps avg

MediaInfo

Общее
Уникальный идентификатор : 195234033265177492278135958019291792483 (0x92E0B503625FB327A4BDDF577F58C463)
Полное имя : F:\My Torrents 3\[apreder]Ossessione(1943)DVB.mkv
Формат : Matroska
Версия формата : Version 2
Размер файла : 1,03 Гбайт
Продолжительность : 2 ч. 14 м.
Общий поток : 1102 Кбит/сек
Дата кодирования : UTC 2015-07-30 17:14:16
Программа кодирования : mkvmerge v8.2.0 ('World of Adventure') 64bit
Библиотека кодирования : libebml v1.3.1 + libmatroska v1.4.2
Attachements : cover.jpg / cover_small.jpg
Видео
Идентификатор : 2
Формат : AVC
Формат/Информация : Advanced Video Codec
Профиль формата : Main@L3
Параметр CABAC формата : Да
Параметр ReFrames формата : 3 кадра
Идентификатор кодека : V_MPEG4/ISO/AVC
Продолжительность : 2 ч. 14 м.
Битрейт : 952 Кбит/сек
Ширина : 720 пикселей
Высота : 576 пикселей
Соотношение сторон : 16:9
Соотношение сторон в оригинале : 16:9
Режим частоты кадров : Постоянный
Частота кадров : 25,000 кадров/сек
Стандарт вещания : Component
Цветовое пространство : YUV
Субдискретизация насыщенности : 4:2:0
Битовая глубина : 8 бит
Тип развёртки : Прогрессивная
Порядок развёртки : Верхнее поле первое
Бит/(Пиксели*Кадры) : 0.092
Размер потока : 915 Мбайт (86%)
Default : Да
Forced : Нет
colour_range : Limited
Основные цвета : BT.601 PAL
Характеристики трансфера : BT.470 System B, BT.470 System G
Коэффициенты матрицы : BT.601
Аудио
Идентификатор : 1
Формат : MPEG Audio
Версия формата : Version 1
Профиль формата : Layer 2
Идентификатор кодека : A_MPEG/L2
Идентификатор кодека/Подсказка : MP2
Продолжительность : 2 ч. 14 м.
Вид битрейта : Постоянный
Битрейт : 128 Кбит/сек
Каналы : 2 канала
Частота : 48,0 КГц
Метод сжатия : С потерями
Задержка видео : -19 мс.
Размер потока : 123 Мбайт (12%)
Язык : Russian
Default : Да
Forced : Нет

Скриншот c названием фильма

Скриншоты


Резервные скриншоты


-[2'508]
[teatrix.ru].t21889.torrent 
Торрент: Зарегистрирован [ 2016-03-20 12:50 ] · 32673EE0AD35678427EE8CAAFD081AF297D7C9E2

Скачать .torrent

Скачать

11 KB

Статус: проверено
Скачан: 2 раз
Размер: 1.03 GB
terms.php



Быстрый ответ

Имя:

      
Для отправки сообщений необходимо включить JavaScript
Показать сообщения:    

Текущее время: 08-Дек 21:12

Часовой пояс: UTC + 3


Вы можете начинать темы
Вы можете отвечать на сообщения
Вы не можете редактировать свои сообщения
Вы не можете удалять свои сообщения
Вы не можете голосовать в опросах
Вы не можете прикреплять файлы к сообщениям
Вы можете скачивать файлы