(Classical) Leonin · Perotin / The School Of Notre Dame (Orlando Consort) · 1997, FLAC (tracks+.cue) lossless


 

[Цитировать]

The School Of Notre Dame
Léonin · Pérotin

Жанр: classical
Страна-производитель диска: ФРГ
Год издания диска: 1997
Издатель: Archiv Produktion
Номер по каталогу: 477 5004
Дата записи: май 1996
Аудиокодек: FLAC
Тип рипа: tracks+.cue
Битрейт аудио: lossless
Продолжительность: 01:16:25
Источник: скачано с what.cd
Буклет в содержимом раздачи есть
Исполнители: Orlando Consort

Треклист

Magnus liber organi
Easter
01. Pascha nostrum immolatus (1:45)
02. Et valde mane una sabbatorum (10:27)
03. Victimae paschali laudes (2:25)
04. Cristus resurgens – Dicant nunc (6:16)
Feast of the Assumption of the Blessed Virgin Mary
05. Benedicta – Virgo, Dei genitrix (16:09)
06. Alleluya – Assumpta est Maria (8:06)
07. Beata es, virgo Maria (2:25)
Feast of St. Stephen
08. Etenim sederunt principes (4:15)
09. Sederunt principes – Adiuva me, Domine (16:22)
10. Alleluya – Video celos apertos (6:43)
11. Video celos apertos (1:32)

Лог создания рипа

Exact Audio Copy V1.0 beta 2 from 29. April 2011
EAC extraction logfile from 20. June 2011, 14:53
Orlando Consort / The School Of Notre Dame
Used drive : HL-DT-STDVD-RAM GH22LP20 Adapter: 0 ID: 0
Read mode : Secure
Utilize accurate stream : Yes
Defeat audio cache : Yes
Make use of C2 pointers : No
Read offset correction : 102
Overread into Lead-In and Lead-Out : No
Fill up missing offset samples with silence : Yes
Delete leading and trailing silent blocks : No
Null samples used in CRC calculations : Yes
Used interface : Native Win32 interface for Win NT & 2000
Gap handling : Appended to previous track
Used output format : User Defined Encoder
Selected bitrate : 1024 kBit/s
Quality : High
Add ID3 tag : No
Command line compressor : C:\Program Files (x86)\Exact Audio Copy\Flac\flac.exe
Additional command line options : -8 -V -T "ARTIST=%artist%" -T "TITLE=%title%" -T "ALBUM=%albumtitle%" -T "DATE=%year%" -T "TRACKNUMBER=%tracknr%" -T "GENRE=%genre%" -T "PERFORMER=%albuminterpret%" -T "COMPOSER=%composer%" %haslyrics%--tag-from-file=LYRICS
TOC of the extracted CD
Track | Start | Length | Start sector | End sector
---------------------------------------------------------
1 | 0:00.32 | 1:45.00 | 32 | 7906
2 | 1:45.32 | 10:27.00 | 7907 | 54931
3 | 12:12.32 | 2:25.00 | 54932 | 65806
4 | 14:37.32 | 6:16.00 | 65807 | 94006
5 | 20:53.32 | 16:09.00 | 94007 | 166681
6 | 37:02.32 | 8:06.00 | 166682 | 203131
7 | 45:08.32 | 2:25.00 | 203132 | 214006
8 | 47:33.32 | 4:15.00 | 214007 | 233131
9 | 51:48.32 | 16:22.00 | 233132 | 306781
10 | 68:10.32 | 6:43.00 | 306782 | 337006
11 | 74:53.32 | 1:32.00 | 337007 | 343906
Track 1
Filename C:\Users\fcheong\Desktop\Orlando Consort - The Schoold Of Notre Dame\01 - Magnus Liber , Easter - Pascha nostrum immolatus (à 1) (Communion).wav
Pre-gap length 0:00:02.42
Peak level 61.9 %
Extraction speed 1.4 X
Track quality 100.0 %
Test CRC 2C24377B
Copy CRC 2C24377B
Accurately ripped (confidence 4) [22E5EBF3] (AR v1)
Copy OK
Track 2
Filename C:\Users\fcheong\Desktop\Orlando Consort - The Schoold Of Notre Dame\02 - Magnus Liber , Easter - Et valde mane una sabbatorum (à 2) (Matins responsory).wav
Peak level 94.7 %
Extraction speed 2.1 X
Track quality 100.0 %
Test CRC 7CF6187B
Copy CRC 7CF6187B
Accurately ripped (confidence 4) [71342B17] (AR v1)
Copy OK
Track 3
Filename C:\Users\fcheong\Desktop\Orlando Consort - The Schoold Of Notre Dame\03 - Magnus Liber , Easter - Victimae paschali laudes (à 1) (Sequence).wav
Peak level 86.6 %
Extraction speed 2.0 X
Track quality 100.0 %
Test CRC BFD30109
Copy CRC BFD30109
Accurately ripped (confidence 4) [9B591F46] (AR v1)
Copy OK
Track 4
Filename C:\Users\fcheong\Desktop\Orlando Consort - The Schoold Of Notre Dame\04 - Magnus Liber , Easter - Cristus resurgens - Dicant nunc (à 3) (Processional Antiphon).wav
Peak level 88.8 %
Extraction speed 2.5 X
Track quality 100.0 %
Test CRC 16A254A1
Copy CRC 16A254A1
Accurately ripped (confidence 4) [0E5C177A] (AR v1)
Copy OK
Track 5
Filename C:\Users\fcheong\Desktop\Orlando Consort - The Schoold Of Notre Dame\05 - Magnus Liber , Feast of the Assumption of the Blessed Virgin Mary - Benedicta (à 3) - Virgo, Dei genitrix (à 3) (Gradual).wav
Pre-gap length 0:00:10.00
Peak level 57.7 %
Extraction speed 2.9 X
Track quality 100.0 %
Test CRC 8F1C2FDD
Copy CRC 8F1C2FDD
Accurately ripped (confidence 4) [5A8D4C61] (AR v1)
Copy OK
Track 6
Filename C:\Users\fcheong\Desktop\Orlando Consort - The Schoold Of Notre Dame\06 - Magnus Liber , Feast of the Assumption of the Blessed Virgin Mary - Alleluya - Assumpta est Maria (à 2) (Alleluya).wav
Peak level 76.9 %
Extraction speed 3.0 X
Track quality 99.9 %
Test CRC 9AEAB5FD
Copy CRC 9AEAB5FD
Accurately ripped (confidence 4) [19F104C5] (AR v1)
Copy OK
Track 7
Filename C:\Users\fcheong\Desktop\Orlando Consort - The Schoold Of Notre Dame\07 - Magnus Liber , Feast of the Assumption of the Blessed Virgin Mary - Beata es, virgo Maria (à 2) (Offertory).wav
Peak level 89.0 %
Extraction speed 2.9 X
Track quality 100.0 %
Test CRC 56A4AF7C
Copy CRC 56A4AF7C
Accurately ripped (confidence 4) [C0C7679A] (AR v1)
Copy OK
Track 8
Filename C:\Users\fcheong\Desktop\Orlando Consort - The Schoold Of Notre Dame\08 - Magnus Liber , Feast of St. Stephen - Etenim sederunt principes (à 1) (Introit).wav
Pre-gap length 0:00:09.00
Peak level 82.3 %
Extraction speed 3.2 X
Track quality 100.0 %
Test CRC 271DB10E
Copy CRC 271DB10E
Accurately ripped (confidence 4) [F42ED6FD] (AR v1)
Copy OK
Track 9
Filename C:\Users\fcheong\Desktop\Orlando Consort - The Schoold Of Notre Dame\09 - Magnus Liber , Feast of St. Stephen - Sederunt principes - Adiuva me, Domine (à 4) (Gradual).wav
Peak level 99.9 %
Extraction speed 3.8 X
Track quality 100.0 %
Test CRC 0EAF4883
Copy CRC 0EAF4883
Accurately ripped (confidence 4) [295A52A2] (AR v1)
Copy OK
Track 10
Filename C:\Users\fcheong\Desktop\Orlando Consort - The Schoold Of Notre Dame\10 - Magnus Liber , Feast of St. Stephen - Alleluya - Video celos apertos (à 2) (Alleluya).wav
Peak level 80.4 %
Extraction speed 3.9 X
Track quality 100.0 %
Test CRC 2639E038
Copy CRC 2639E038
Accurately ripped (confidence 4) [E623EC21] (AR v1)
Copy OK
Track 11
Filename C:\Users\fcheong\Desktop\Orlando Consort - The Schoold Of Notre Dame\11 - Magnus Liber , Feast of St. Stephen - Video celos apertos (Communion).wav
Peak level 99.9 %
Extraction speed 2.3 X
Track quality 99.8 %
Test CRC 47034D7C
Copy CRC 47034D7C
Accurately ripped (confidence 4) [882AF703] (AR v1)
Copy OK
All tracks accurately ripped
No errors occurred
End of status report
==== Log checksum 2B3560AE9215C6A5C32D8CD0E4C2F62E00E44E5ED8B8AB5BCE8FC656D2267802 ====

Содержание индексной карты (.CUE)

REM DATE 1997
REM DISCID 8F11E90B
REM COMMENT "ExactAudioCopy v1.0b2"
PERFORMER "Orlando Consort"
TITLE "The School Of Notre Dame"
FILE "01. Pascha nostrum immolatus.wav" WAVE
TRACK 01 AUDIO
TITLE "Pascha nostrum immolatus"
PERFORMER "Orlando Consort"
PREGAP 00:00:32
INDEX 01 00:00:00
FILE "02. Et valde mane una sabbatorum.wav" WAVE
TRACK 02 AUDIO
TITLE "Et valde mane una sabbatorum"
PERFORMER "Orlando Consort"
INDEX 01 00:00:00
FILE "03. Victimae paschali laudes.wav" WAVE
TRACK 03 AUDIO
TITLE "Victimae paschali laudes"
PERFORMER "Orlando Consort"
INDEX 01 00:00:00
FILE "04. Cristus resurgens – Dicant nunc.wav" WAVE
TRACK 04 AUDIO
TITLE "Cristus resurgens – Dicant nunc"
PERFORMER "Orlando Consort"
INDEX 01 00:00:00
TRACK 05 AUDIO
TITLE "Benedicta – Virgo, Dei genitrix"
PERFORMER "Orlando Consort"
INDEX 00 06:06:00
FILE "05. Benedicta – Virgo, Dei genitrix.wav" WAVE
INDEX 01 00:00:00
FILE "06. Alleluya – Assumpta est Maria.wav" WAVE
TRACK 06 AUDIO
TITLE "Alleluya – Assumpta est Maria"
PERFORMER "Orlando Consort"
INDEX 01 00:00:00
FILE "07. Beata es, virgo Maria.wav" WAVE
TRACK 07 AUDIO
TITLE "Beata es, virgo Maria"
PERFORMER "Orlando Consort"
INDEX 01 00:00:00
TRACK 08 AUDIO
TITLE "Etenim sederunt principes"
PERFORMER "Orlando Consort"
INDEX 00 02:16:00
FILE "08. Etenim sederunt principes.wav" WAVE
INDEX 01 00:00:00
FILE "09. Sederunt principes – Adiuva me, Domine.wav" WAVE
TRACK 09 AUDIO
TITLE "Sederunt principes – Adiuva me, Domine"
PERFORMER "Orlando Consort"
INDEX 01 00:00:00
FILE "10. Alleluya – Video celos apertos.wav" WAVE
TRACK 10 AUDIO
TITLE "Alleluya – Video celos apertos"
PERFORMER "Orlando Consort"
INDEX 01 00:00:00
FILE "11. Video celos apertos.wav" WAVE
TRACK 11 AUDIO
TITLE "Video celos apertos"
PERFORMER "Orlando Consort"
INDEX 01 00:00:00



Показать сообщения:    

Текущее время: 03-Дек 05:24

Часовой пояс: UTC + 3


Вы не можете начинать темы
Вы не можете отвечать на сообщения
Вы не можете редактировать свои сообщения
Вы не можете удалять свои сообщения
Вы не можете голосовать в опросах
Вы не можете прикреплять файлы к сообщениям
Вы не можете скачивать файлы