[TR24][OF] Arcangelo Corelli: Sonatas (12) for Violin and Basso Continuo, Op. 5 - Accademia Bizantina, Stefano Montanari & Ottavio Dantone - 2005/2007 (Classical / Baroque)


Статистика раздачи [Обновить пиров]
Размер:  2.52 GB   |    Зарегистрирован:  8 месяцев 13 дней   |    Скачан:  0 раз

Полного источника не было: Никогда

 
   
 
 
 

[Цитировать]

Arcangelo Corelli
Violin Sonatas Op. 5
Stefano Montanari
Accademia Bizantina & Ottavio Dantone
-Год издания/переиздания диска: 2005/2007
Жанр: Classical / Baroque
Издатель: Arts Music | Blue Line
Продолжительность: 02:06:31
Наличие сканов: Sleeve, Digital Booklet- -Контейнер: FLAC (*.flac) | Тип рипа: tracks
Разрядность: 24bit / 96kHz | Количество каналов: 2.0-SACD-R здесь

Треклист
Arcangelo Corelli (1653-1713)
CD 1
Sonata da Chiesa No. 1 in Re maggiore
01. Grave-Adagio-Grave-Allegro-Adagio (3:51)
02. Allegro (2:26)
03. Allegro (0:57)
04. Adagio (3:10)
05. Allegro (1:37)
Sonata da Chiesa No. 2 in Si bemolle maggiore
06. Grave (3:01)
07. Allegro (2:04)
08. Vivace (1:16)
09. Adagio (2:41)
10. Vivace (1:21)
Sonata da Chiesa No. 3 in Do maggiore
11. Adagio (2:55)
12. Allegro (2:00)
13. Adagio (3:36)
14. Allegro (1:00)
15. Allegro (2:27)
Sonata da Chiesa No. 4 in Fa maggiore
16. Adagio (2:10)
17. Allegro (2:23)
18. Vivace (1:07)
19. Adagio (2:30)
20. Allegro (2:21)
Sonata da Chiesa No. 5 in sol minore
21. Adagio (3:08)
22. Vivace (2:00)
23. Adagio (2:26)
24. Vivace (1:37)
25. Giga: Allegro (1:37)
Sonata da Chiesa No. 6 in La maggiore
26. Grave (3:19)
27. Allegro-Adagio (2:11)
28. Allegro (0:57)
29. Adagio (2:21)
30. Allegro (2:17)
CD 2
Sonata da Camera No. 7 in re minore
01. Preludio (Vivace) (1:58)
02. Corrente (Allegro) (2:38)
03. Sarabanda (Largo) (2:03)
04. Giga (Allegro) (2:04)
Sonata da Camera No. 8 in mi minore
05. Preludio (Largo) (4:44)
06. Allemanda (Allegro) (2:01)
07. Sarabanda (Largo) (2:42)
08. Giga (Allegro) (1:50)
Sonata da Camera No. 9 in La maggiore
09. Preludio (Largo) (5:00)
10. Giga (Allegro) (2:46)
11. Adagio (0:40)
12. Tempo di Gavotta (Allegro) (2:56)
Sonata da Camera No. 10 in Fa maggiore
13. Preludio (Adagio) (2:18)
14. Allemanda (Allegro) (2:16)
15. Sarabanda (Largo) (2:00)
16. Gavotta (Allegro) (0:40)
17. Giga (Allegro) (2:05)
Sonata da Camera No. 11 in Mi maggiore
18. Preludio (Adagio) (1:55)
19. Allegro (2:31)
20. Adagio (0:40)
21. Vivace (2:16)
22. Gavotta (Allegro) (0:38)
Sonata da Camera No. 12 in re minore 'Follia'
23. Tema-Variazione I (Adagio) (1:25)
24. Variazione 2-7 (Allegro) (2:01)
25. Variazione 8 (Adagio) (0:44)
26. Variazione 9-10 (Vivace-Allegro) (0:37)
27. Variazione 11-13 (Andante-Allegro) (1:17)
28. Variazione 14-15 (Adagio) (1:50)
29. Variazione 16-18 (Allegro) (1:03)
30. Variazione 19-22 (Adagio-Allegro) (2:05)

О релизе


Arcangelo Corelli, one of Italy's greatest baroque composers, wrote a large amount of music in all the genres popular at the time but it was these 12 Violin Sonatas Op. 5 composed just before the 18th century was about to dawn that really cemented Corelli's fame as the foremost model for violin writing.
Today, Corelli's reputation as being the unrivalled champion of instrumental mastery has survived almost intact. The publication of these works some time after their composition was one of the most unique events in the history of music; by 1800 the Op. 5 had run to 35 reprints and these sonatas were known all throughout Europe.
In these pieces, the composer offers an exhaustive compendium of the 'da chiesa' and 'da camera' styles, making an attentive distinction between the two branches – the former contrapuntal, the latter in the form of courtly dance suites.
The result is a collection of staggering beauty focusing on a number of musical forms and technical difficulties framed in an aura of intense expressive concentration.
The Accademia Bizantina together with Montanori and Dantone manage to capture all the sensitive priority of these mature creations, and their affinity with Corelli is all too apparent in their wonderfully articulate and feliticious phrasing. In their hands the music seems to float and dance in thin air like a tiny feather being caressed by the sweet evening breeze. The clean and immediate sound quality coupled with Raffaele Mellace's superlative annotations compel one to consider this album as one of the finest Corelli recordings to be issued in recent years.
© 2005, Gerald Fenech
Personnel:
Stefano Montanari, violin
Accademia Bizantina
Ottavio Dantone, harpsichord & conductor

ОтчётыДинамический диапазон

CD 1
foobar2000 1.3.8 / Dynamic Range Meter 1.1.1
log date: 2015-07-31 11:34:56
--------------------------------------------------------------------------------
Analyzed: Accademia Bizantina, Stefano Montanari & Ottavio Dantone / Corelli: Violin Sonatas Op. 5, Nos. 1-12
--------------------------------------------------------------------------------
DR Peak RMS Duration Track
--------------------------------------------------------------------------------
DR11 -2.76 dB -16.88 dB 3:51 01-Sonata da Chiesa No. 1 in Re maggiore Grave-Adagio-Grave-Allegro-Adagio
DR11 -0.93 dB -16.26 dB 2:26 02-Sonata da Chiesa No. 1 in Re maggiore Allegro
DR12 -3.34 dB -19.28 dB 0:57 03-Sonata da Chiesa No. 1 in Re maggiore Allegro
DR12 -0.03 dB -18.67 dB 3:10 04-Sonata da Chiesa No. 1 in Re maggiore Adagio
DR12 -1.11 dB -16.86 dB 1:37 05-Sonata da Chiesa No. 1 in Re maggiore Allegro
DR11 -3.42 dB -17.57 dB 3:01 06-Sonata da Chiesa No. 2 in Si bemolle maggiore Grave
DR12 0.00 dB -16.15 dB 2:04 07-Sonata da Chiesa No. 2 in Si bemolle maggiore Allegro
DR11 -1.80 dB -17.49 dB 1:16 08-Sonata da Chiesa No. 2 in Si bemolle maggiore Vivace
DR11 -2.23 dB -17.60 dB 2:41 09-Sonata da Chiesa No. 2 in Si bemolle maggiore Adagio
DR12 -1.57 dB -18.34 dB 1:21 10-Sonata da Chiesa No. 2 in Si bemolle maggiore Vivace
DR12 -2.15 dB -18.90 dB 2:55 11-Sonata da Chiesa No. 3 in Do maggiore Adagio
DR12 -1.18 dB -16.56 dB 2:00 12-Sonata da Chiesa No. 3 in Do maggiore Allegro
DR13 -1.80 dB -20.13 dB 3:36 13-Sonata da Chiesa No. 3 in Do maggiore Adagio
DR13 -2.24 dB -18.04 dB 1:00 14-Sonata da Chiesa No. 3 in Do maggiore Allegro
DR12 -2.65 dB -18.58 dB 2:27 15-Sonata da Chiesa No. 3 in Do maggiore Allegro
DR12 -6.99 dB -23.84 dB 2:10 16-Sonata da Chiesa No. 4 in Fa maggiore Adagio
DR13 -0.15 dB -17.13 dB 2:23 17-Sonata da Chiesa No. 4 in Fa maggiore Allegro
DR11 -3.14 dB -18.00 dB 1:07 18-Sonata da Chiesa No. 4 in Fa maggiore Vivace
DR12 -3.39 dB -21.21 dB 2:30 19-Sonata da Chiesa No. 4 in Fa maggiore Adagio
DR12 -2.54 dB -18.56 dB 2:21 20-Sonata da Chiesa No. 4 in Fa maggiore Allegro
DR11 -1.12 dB -17.30 dB 3:08 21-Sonata da Chiesa No. 5 in sol minore Adagio
DR11 -0.76 dB -16.04 dB 2:00 22-Sonata da Chiesa No. 5 in sol minore Vivace
DR11 -2.13 dB -17.89 dB 2:26 23-Sonata da Chiesa No. 5 in sol minore Adagio
DR12 0.00 dB -16.43 dB 1:37 24-Sonata da Chiesa No. 5 in sol minore Vivace
DR12 -3.28 dB -20.18 dB 1:37 25-Sonata da Chiesa No. 5 in sol minore Giga: Allegro
DR13 -3.29 dB -21.61 dB 3:19 26-Sonata da Chiesa No. 6 in La maggiore Grave
DR13 0.00 dB -16.75 dB 2:11 27-Sonata da Chiesa No. 6 in La maggiore Allegro-Adagio
DR12 -2.41 dB -18.54 dB 0:57 28-Sonata da Chiesa No. 6 in La maggiore Allegro
DR13 -2.26 dB -22.48 dB 2:21 29-Sonata da Chiesa No. 6 in La maggiore Adagio
DR11 -1.47 dB -17.07 dB 2:17 30-Sonata da Chiesa No. 6 in La maggiore Allegro
--------------------------------------------------------------------------------
Number of tracks: 30
Official DR value: DR12
Samplerate: 96000 Hz
Channels: 2
Bits per sample: 24
Bitrate: 2792 kbps
Codec: FLAC
================================================================================
CD 2
foobar2000 1.3.8 / Dynamic Range Meter 1.1.1
log date: 2015-07-31 11:37:59
--------------------------------------------------------------------------------
Analyzed: Accademia Bizantina, Stefano Montanari & Ottavio Dantone / Corelli: Violin Sonatas Op. 5, Nos. 1-12
--------------------------------------------------------------------------------
DR Peak RMS Duration Track
--------------------------------------------------------------------------------
DR13 -6.22 dB -23.06 dB 1:58 01-Sonata da Camera No. 7 in re minore Preludio (Vivace)
DR13 -2.00 dB -21.15 dB 2:38 02-Sonata da Camera No. 7 in re minore Corrente (Allegro)
DR12 -7.05 dB -26.03 dB 2:03 03-Sonata da Camera No. 7 in re minore Sarabanda (Largo)
DR12 -2.71 dB -21.06 dB 2:04 04-Sonata da Camera No. 7 in re minore Giga (Allegro)
DR13 -6.54 dB -24.24 dB 4:44 05-Sonata da Camera No. 8 in mi minore Preludio (Largo)
DR13 -5.12 dB -22.38 dB 2:01 06-Sonata da Camera No. 8 in mi minore Allemanda (Allegro)
DR12 -8.22 dB -25.16 dB 2:42 07-Sonata da Camera No. 8 in mi minore Sarabanda (Largo)
DR12 -6.06 dB -22.15 dB 1:50 08-Sonata da Camera No. 8 in mi minore Giga (Allegro)
DR12 -4.15 dB -23.30 dB 5:00 09-Sonata da Camera No. 9 in La maggiore Preludio (Largo)
DR12 -5.25 dB -22.30 dB 2:46 10-Sonata da Camera No. 9 in La maggiore Giga (Allegro)
DR9 -7.09 dB -25.00 dB 0:40 11-Sonata da Camera No. 9 in La maggiore Adagio
DR13 -4.65 dB -21.82 dB 2:56 12-Sonata da Camera No. 9 in La maggiore Tempo di Gavotta (Allegro)
DR12 -6.75 dB -23.69 dB 2:18 13-Sonata da Camera No. 10 in Fa maggiore Preludio (Adagio)
DR12 -4.81 dB -22.35 dB 2:16 14-Sonata da Camera No. 10 in Fa maggiore Allemanda (Allegro)
DR12 -9.79 dB -26.41 dB 2:00 15-Sonata da Camera No. 10 in Fa maggiore Sarabanda (Largo)
DR12 -5.27 dB -23.19 dB 0:40 16-Sonata da Camera No. 10 in Fa maggiore Gavotta (Allegro)
DR12 -3.28 dB -21.22 dB 2:05 17-Sonata da Camera No. 10 in Fa maggiore Giga (Allegro)
DR12 -7.99 dB -24.50 dB 1:55 18-Sonata da Camera No. 11 in Mi maggiore Preludio (Adagio)
DR13 -1.61 dB -20.08 dB 2:31 19-Sonata da Camera No. 11 in Mi maggiore Allegro
DR11 -7.37 dB -24.89 dB 0:40 20-Sonata da Camera No. 11 in Mi maggiore Adagio
DR12 -6.46 dB -23.56 dB 2:16 21-Sonata da Camera No. 11 in Mi maggiore Vivace
DR12 -5.80 dB -23.40 dB 0:38 22-Sonata da Camera No. 11 in Mi maggiore Gavotta (Allegro)
DR11 -7.37 dB -23.09 dB 1:25 23-Sonata da Camera No. 12 in re minore 'Follia' Tema-Variazione I (Adagio)
DR13 -1.25 dB -19.55 dB 2:01 24-Sonata da Camera No. 12 in re minore 'Follia' Variazione 2-7 (Allegro)
DR12 -8.55 dB -24.42 dB 0:44 25-Sonata da Camera No. 12 in re minore 'Follia' Variazione 8 (Adagio)
DR11 -4.54 dB -20.88 dB 0:37 26-Sonata da Camera No. 12 in re minore 'Follia' Variazione 9-10 (Vivace-Allegro)
DR12 -5.60 dB -24.15 dB 1:17 27-Sonata da Camera No. 12 in re minore 'Follia' Variazione 11-13 (Andante-Allegro)
DR12 -10.55 dB -28.65 dB 1:50 28-Sonata da Camera No. 12 in re minore 'Follia' Variazione 14-15 (Adagio)
DR12 -5.17 dB -19.77 dB 1:03 29-Sonata da Camera No. 12 in re minore 'Follia' Variazione 16-18 (Allegro)
DR12 -0.70 dB -18.26 dB 2:05 30-Sonata da Camera No. 12 in re minore 'Follia' Variazione 19-22 (Adagio-Allegro)
--------------------------------------------------------------------------------
Number of tracks: 30
Official DR value: DR12
Samplerate: 96000 Hz
Channels: 2
Bits per sample: 24
Bitrate: 2862 kbps
Codec: FLAC
================================================================================

Скриншот спектра частот

Доп. информация

При скачивании, если необходимо, переименуйте папку, в которой будет находиться альбомБольшая просьба к скачавшим поддерживать раздачу! Помогайте другим, ведь вам тоже может понадобиться помощь!Не забываем говорить "Спасибо"!Комментарии приветствуются!
[teatrix.ru].t21891.torrent 
Торрент: Зарегистрирован [ 2016-03-20 12:50 ] · 1BA212AA9A5C002E0C867719E365F0FA4B23BA32

Скачать .torrent

Скачать

19 KB

Статус: проверено
Скачан: 0 раз
Размер: 2.52 GB
terms.php



Быстрый ответ

Имя:

      
Для отправки сообщений необходимо включить JavaScript
Показать сообщения:    

Текущее время: 03-Дек 03:24

Часовой пояс: UTC + 3


Вы можете начинать темы
Вы можете отвечать на сообщения
Вы не можете редактировать свои сообщения
Вы не можете удалять свои сообщения
Вы не можете голосовать в опросах
Вы не можете прикреплять файлы к сообщениям
Вы можете скачивать файлы