(Classical) Claudio Monteverdi - Scherzi Musicali - Emanuela Galli, La Venexiana, Claudio Cavina - 2009, FLAC (image+.cue) lossless


 

[Цитировать]

Claudio Monteverdi - Scherzi Musicali - Emanuela Galli, La Venexiana, Claudio Cavina
Жанр: Classical
Страна-производитель диска: Spain
Год издания диска: 2009
Издатель (лейбл): Glossa
Номер по каталогу: GCD 920915
Дата записи: 2008
Аудиокодек: FLAC
Тип рипа: image+.cue
Битрейт аудио: lossless
Продолжительность: 54:40
Источник: собственный рип
Наличие сканов в содержимом раздачи: да
Треклист:
Claudio Monteverdi (1567-1643)
Scherzi Musicali (1632)
[1] Con che soavità
[2] Ohimè ch’io cado
[3] Sì dolc’è il tormento
[4] Maledetto sia l’aspetto
[5] Quel sguardo sdegnosetto
[6] Eri già tutta mia
[7] Ecco di dolci raggi
[8] Et è pur dunque vero
[9] La mia turca
[10] Voglio di vita uscir
[11] Più lieto il guardo
[12] Perchè se m’odiavi
[13] Lamento di Arianna
Исполнители:
Emanuela Galli soprano
La Venexiana
directed by Claudio Cavina

Лог создания рипа

Exact Audio Copy V1.1 from 23. June 2015
EAC extraction logfile from 30. July 2015, 20:15
Emanuela Galli, La Venexiana, Claudio Cavina / Monteverdi - Scherzi Musicali
Used drive : HL-DT-STDVDRAM GU70N Adapter: 1 ID: 0
Read mode : Secure
Utilize accurate stream : Yes
Defeat audio cache : Yes
Make use of C2 pointers : No
Read offset correction : 48
Overread into Lead-In and Lead-Out : No
Fill up missing offset samples with silence : Yes
Delete leading and trailing silent blocks : No
Null samples used in CRC calculations : Yes
Used interface : Native Win32 interface for Win NT & 2000
Used output format : User Defined Encoder
Selected bitrate : 128 kBit/s
Quality : High
Add ID3 tag : No
Command line compressor : C:\Program Files (x86)\Exact Audio Copy\Flac\flac.exe
Additional command line options : -V -8 -T "Date=%year%" -T "Genre=%genre%" %source%
TOC of the extracted CD
Track | Start | Length | Start sector | End sector
---------------------------------------------------------
1 | 0:00.00 | 4:55.22 | 0 | 22146
2 | 4:55.22 | 4:10.49 | 22147 | 40945
3 | 9:05.71 | 6:19.66 | 40946 | 69436
4 | 15:25.62 | 1:34.14 | 69437 | 76500
5 | 17:00.01 | 2:13.52 | 76501 | 86527
6 | 19:13.53 | 2:33.44 | 86528 | 98046
7 | 21:47.22 | 2:29.60 | 98047 | 109281
8 | 24:17.07 | 7:02.14 | 109282 | 140945
9 | 31:19.21 | 2:02.56 | 140946 | 150151
10 | 33:22.02 | 5:22.02 | 150152 | 174303
11 | 38:44.04 | 3:51.00 | 174304 | 191628
12 | 42:35.04 | 3:04.73 | 191629 | 205501
13 | 45:40.02 | 8:58.61 | 205502 | 245912
Range status and errors
Selected range
Filename C:\temp\GCD 920915 Monteverdi - Scherzi Musicali\Monteverdi - Scherzi Musicali.wav
Peak level 99.4 %
Extraction speed 5.0 X
Range quality 99.9 %
Test CRC F3DD96FA
Copy CRC F3DD96FA
Copy OK
No errors occurred
AccurateRip summary
Track 1 accurately ripped (confidence 2) [EC181CDC] (AR v2)
Track 2 accurately ripped (confidence 2) [FABE4048] (AR v2)
Track 3 accurately ripped (confidence 2) [7A747CD6] (AR v2)
Track 4 accurately ripped (confidence 2) [3F63CC3D] (AR v2)
Track 5 accurately ripped (confidence 2) [D70F04D5] (AR v2)
Track 6 accurately ripped (confidence 2) [950CE473] (AR v2)
Track 7 accurately ripped (confidence 2) [2888E0DB] (AR v2)
Track 8 accurately ripped (confidence 2) [92F751DE] (AR v2)
Track 9 accurately ripped (confidence 2) [A67B7372] (AR v2)
Track 10 accurately ripped (confidence 2) [A4FE9401] (AR v2)
Track 11 accurately ripped (confidence 2) [90D189A8] (AR v2)
Track 12 accurately ripped (confidence 2) [1A3C5861] (AR v2)
Track 13 accurately ripped (confidence 2) [2ACD7B21] (AR v2)
All tracks accurately ripped
End of status report
==== Log checksum F8CF22B5E1B410633938E2AD758C185C20CD39B4AF6A28FAF38594FB36557329 ====



Показать сообщения:    

Текущее время: 04-Дек 09:08

Часовой пояс: UTC + 3


Вы не можете начинать темы
Вы не можете отвечать на сообщения
Вы не можете редактировать свои сообщения
Вы не можете удалять свои сообщения
Вы не можете голосовать в опросах
Вы не можете прикреплять файлы к сообщениям
Вы не можете скачивать файлы