Сальво / Salvo (Фабио Грассадония / Fabio Grassadonia, Антонио Пьяцца / Antonio Piazza) [2013, Италия, Франция, драма, DVDRip] VO (Мегапыхарь) + Original Ita


Статистика раздачи [Обновить пиров]
Размер:  1.79 GB   |    Зарегистрирован:  8 месяцев 15 дней   |    Скачан:  0 раз

Полного источника не было: Никогда

 
   
 
 
 

[Цитировать]

Сальво / Salvo
Страна: Италия, Франция
Жанр: драма
Год выпуска: 2013
Продолжительность: 01:45:10
Перевод: Одноголосый закадровый - МЕГАПЫХАРЬ
Cубтитры: нет
Оригинальная аудиодорожка: итальянский

Режиссер: Фабио Грассадония / Fabio Grassadonia , Антонио Пьяцца / Antonio Piazza
В ролях: Салех Бакри, Луиджи Ло Кашио, Сара Серайокко, Марио Пупелла, Редуэн Бехаш
Описание: Сицилия, Палермо. Киллер мафии не выполняет заказ до конца и оставляет в живых сестру своей жертвы, слепую девушку Риту. Он похищает ее и перевозит с места на место, но как только между ними возникают отношения, пара оказывается окруженной со всех сторон бандитами.
Качество видео: DVDRip
Формат видео: AVI
Видео: 704x288 (2.44:1), 25 fps, XviD build 73 ~1787 kbps avg, 0.35 bit/pixel
Аудио: 48 kHz, AC3 Dolby Digital, 2/0 (L,R) ch, ~192 kbps - одноголосый
Аудио: 48 kHz, AC3 Dolby Digital, 3/2 (L,C,R,l,r) + LFE ch, ~448 kbps - оригинал (отдельным файлом)

MediaInfo

Общее
Полное имя : H:\Salvo.2013.dvdrip_[1.46]_[teko]\Salvo.2013.dvdrip_[1.46].avi
Формат : AVI
Формат/Информация : Audio Video Interleave
Размер файла : 1,46 Гбайт
Продолжительность : 1 ч. 45 м.
Общий поток : 1989 Кбит/сек
Программа кодирования : VirtualDubMod 1.5.10.3 | www.virtualdub-fr.org || (build 2550/release)
Библиотека кодирования : VirtualDubMod build 2550/release
Видео
Идентификатор : 0
Формат : MPEG-4 Visual
Профиль формата : Advanced Simple@L5
Параметр BVOP формата : 1
Параметр QPel формата : Нет
Параметр GMC формата : Без точки перехода
Параметр матрицы формата : Выборочная
Идентификатор кодека : XVID
Идентификатор кодека/Подсказка : XviD
Продолжительность : 1 ч. 45 м.
Битрейт : 1788 Кбит/сек
Ширина : 704 пикселя
Высота : 288 пикселей
Соотношение сторон : 2,40:1
Частота кадров : 25,000 кадров/сек
Цветовое пространство : YUV
Субдискретизация насыщенности : 4:2:0
Битовая глубина : 8 бит
Тип развёртки : Прогрессивная
Метод сжатия : С потерями
Бит/(Пиксели*Кадры) : 0.353
Размер потока : 1,31 Гбайт (90%)
Библиотека кодирования : XviD 73
Аудио
Идентификатор : 1
Формат : AC-3
Формат/Информация : Audio Coding 3
Расширение режима : CM (complete main)
Параметр Endianness формата : Big
Идентификатор кодека : 2000
Продолжительность : 1 ч. 45 м.
Вид битрейта : Постоянный
Битрейт : 192 Кбит/сек
Каналы : 2 канала
Расположение каналов : Front: L R
Частота : 48,0 КГц
Битовая глубина : 16 бит
Метод сжатия : С потерями
Размер потока : 144 Мбайт (10%)
Выравнивание : Разделение по промежуткам
Продолжительность промежутка : 40 мс. (1,00 видеокадр)
Время предзагрузки промежутка : 500 мс.
[teatrix.ru].t21897.torrent 
Торрент: Зарегистрирован [ 2016-03-20 12:50 ] · 7CCBDB871C5BD89506FEE22F904E65C3EEE94451

Скачать .torrent

Скачать

18 KB

Статус: проверено
Скачан: 0 раз
Размер: 1.79 GB
terms.php



Быстрый ответ

Имя:

      
Для отправки сообщений необходимо включить JavaScript
Показать сообщения:    

Текущее время: 05-Дек 05:32

Часовой пояс: UTC + 3


Вы можете начинать темы
Вы можете отвечать на сообщения
Вы не можете редактировать свои сообщения
Вы не можете удалять свои сообщения
Вы не можете голосовать в опросах
Вы не можете прикреплять файлы к сообщениям
Вы можете скачивать файлы