(Opera, Vocal) Eileen Farrell - Puccini Arias (Tosca, Turandot, La Boheme, Manon Lescaut, Madama Butterfly, La Rondine), Max Rudolf, 1959 - Studio Recording / 2006 - FLAC (tracks+.cue), lossless


 

[Цитировать]

Eileen Farrell - Puccini Arias (Tosca, Turandot, La Boheme, Manon Lescaut, Madama Butterfly, La Rondine)
Жанр: Opera, Vocal
Страна-производитель диска: CШA
Год издания диска: 2006
Издатель (лейбл): Sony Classical
Дата записи: 1959
Аудиокодек: FLAC
Тип рипа: tracks+.cue
Битрейт аудио: lossless
Продолжительность: 76:16
Источник: релизер (Guillermo)
Исполнители:
Eileen Farrell, soprano,
Max Rudolf, Conductor,
Columbia Symphony Orchestra.
Recorded at Columbia 30th Street Studio, September 15, 1959 & September 22, 1959 (Puccini excerpts), February 6, 1959 & May 13, 1959.

Лог создания рипа

Exact Audio Copy V1.0 beta 3 from 29. August 2011
EAC extraction logfile from 27. July 2015, 11:20
Eileen Farrell / Great Performances - Puccini Arias
Used drive : HL-DT-STDVDRAM GH24NSC0 Adapter: 3 ID: 0
Read mode : Secure
Utilize accurate stream : Yes
Defeat audio cache : Yes
Make use of C2 pointers : No
Read offset correction : 6
Overread into Lead-In and Lead-Out : No
Fill up missing offset samples with silence : Yes
Delete leading and trailing silent blocks : No
Null samples used in CRC calculations : Yes
Used interface : Native Win32 interface for Win NT & 2000
Gap handling : Appended to previous track
Used output format : User Defined Encoder
Selected bitrate : 768 kBit/s
Quality : High
Add ID3 tag : No
Command line compressor : C:\Program Files (x86)\Exact Audio Copy\FLAC\FLAC.EXE
Additional command line options : -8 -V -T "ARTIST=%artist%" -T "TITLE=%title%" -T "ALBUM=%albumtitle%" -T "DATE=%year%" -T "TRACKNUMBER=%tracknr%" -T "GENRE=%genre%" -T "PERFORMER=%albuminterpret%" -T "COMPOSER=%composer%" %haslyrics%--tag-from-file=LYRICS="%lyricsfile%"%haslyrics% -T "ALBUMARTIST=%albumartist%" -T "DISCNUMBER=%cdnumber%" -T "TOTALDISCS=%totalcds%" -T "TOTALTRACKS=%numtracks%" -T "COMMENT=%comment%" %source% -o %dest%
TOC of the extracted CD
Track | Start | Length | Start sector | End sector
---------------------------------------------------------
1 | 0:00.00 | 2:25.20 | 0 | 10894
2 | 2:25.20 | 2:10.12 | 10895 | 20656
3 | 4:35.32 | 4:52.55 | 20657 | 42611
4 | 9:28.12 | 3:07.62 | 42612 | 56698
5 | 12:35.74 | 2:42.24 | 56699 | 68872
6 | 15:18.23 | 2:40.41 | 68873 | 80913
7 | 17:58.64 | 3:01.68 | 80914 | 94556
8 | 21:00.57 | 2:52.07 | 94557 | 107463
9 | 23:52.64 | 4:47.18 | 107464 | 129006
10 | 28:40.07 | 2:18.72 | 129007 | 139428
11 | 30:59.04 | 2:46.15 | 139429 | 151893
12 | 33:45.19 | 5:48.73 | 151894 | 178066
13 | 39:34.17 | 4:14.30 | 178067 | 197146
14 | 43:48.47 | 12:18.32 | 197147 | 252528
15 | 56:07.04 | 6:58.22 | 252529 | 283900
16 | 63:05.26 | 7:44.15 | 283901 | 318715
17 | 70:49.41 | 4:58.14 | 318716 | 341079
Track 1
Filename f:\Users\Guillermo\Desktop\EAC convertidos\01 O mio babbino caro from Gianni Schicchi.wav
Pre-gap length 0:00:02.00
Peak level 61.5 %
Extraction speed 1.4 X
Track quality 100.0 %
Test CRC 8AFB2DDB
Copy CRC 8AFB2DDB
Copy OK
Track 2
Filename f:\Users\Guillermo\Desktop\EAC convertidos\02 Quando me'n vo' soletta per la via from La bohème (Musetta's Waltz Song).wav
Pre-gap length 0:00:04.82
Peak level 58.9 %
Extraction speed 1.5 X
Track quality 100.0 %
Test CRC 5E9BDB5A
Copy CRC 5E9BDB5A
Copy OK
Track 3
Filename f:\Users\Guillermo\Desktop\EAC convertidos\03 Sì, mi chiamano Mimì from La bohème.wav
Pre-gap length 0:00:03.20
Peak level 64.1 %
Extraction speed 1.9 X
Track quality 100.0 %
Test CRC 60C4DC82
Copy CRC 60C4DC82
Copy OK
Track 4
Filename f:\Users\Guillermo\Desktop\EAC convertidos\04 Donde lieta usci from La bohème.wav
Pre-gap length 0:00:04.77
Peak level 78.0 %
Extraction speed 1.9 X
Track quality 100.0 %
Test CRC 75B345D8
Copy CRC 75B345D8
Copy OK
Track 5
Filename f:\Users\Guillermo\Desktop\EAC convertidos\05 Chi il bel sogno di Doretta from La rondine.wav
Pre-gap length 0:00:06.48
Peak level 76.0 %
Extraction speed 1.9 X
Track quality 100.0 %
Test CRC E993D64D
Copy CRC E993D64D
Copy OK
Track 6
Filename f:\Users\Guillermo\Desktop\EAC convertidos\06 Non la sospiri from Tosca.wav
Pre-gap length 0:00:06.65
Peak level 85.7 %
Extraction speed 1.9 X
Track quality 100.0 %
Test CRC BDCEF26C
Copy CRC BDCEF26C
Copy OK
Track 7
Filename f:\Users\Guillermo\Desktop\EAC convertidos\07 Vissi d'arte from Tosca.wav
Pre-gap length 0:00:06.66
Peak level 61.3 %
Extraction speed 2.1 X
Track quality 100.0 %
Test CRC C70610A9
Copy CRC C70610A9
Copy OK
Track 8
Filename f:\Users\Guillermo\Desktop\EAC convertidos\08 Spira sul mare from Madame Butterfly.wav
Pre-gap length 0:00:05.26
Peak level 67.5 %
Extraction speed 1.8 X
Track quality 99.8 %
Test CRC 1F6BAAD7
Copy CRC 1F6BAAD7
Copy OK
Track 9
Filename f:\Users\Guillermo\Desktop\EAC convertidos\09 Un bel di vedremo from Madama Butterfly.wav
Pre-gap length 0:00:06.17
Peak level 67.8 %
Extraction speed 2.5 X
Track quality 100.0 %
Test CRC 431A7BCA
Copy CRC 431A7BCA
Copy OK
Track 10
Filename f:\Users\Guillermo\Desktop\EAC convertidos\10 In quelle trine morbide from Manon Lescaut.wav
Pre-gap length 0:00:05.50
Peak level 81.8 %
Extraction speed 1.7 X
Track quality 99.8 %
Test CRC FDBCB1BD
Copy CRC FDBCB1BD
Copy OK
Track 11
Filename f:\Users\Guillermo\Desktop\EAC convertidos\11 Tu che di gel sei cinta from Turandot.wav
Pre-gap length 0:00:06.36
Peak level 57.5 %
Extraction speed 2.4 X
Track quality 100.0 %
Test CRC 117BCA08
Copy CRC 117BCA08
Copy OK
Track 12
Filename f:\Users\Guillermo\Desktop\EAC convertidos\12 In questa reggia from Turandot.wav
Pre-gap length 0:00:05.90
Peak level 81.8 %
Extraction speed 2.9 X
Track quality 100.0 %
Test CRC F405496F
Copy CRC F405496F
Copy OK
Track 13
Filename f:\Users\Guillermo\Desktop\EAC convertidos\13 Grands dieux! du destin, qui m'accable from Alceste.wav
Pre-gap length 0:00:05.34
Peak level 87.6 %
Extraction speed 2.9 X
Track quality 100.0 %
Test CRC 4379484C
Copy CRC 4379484C
Copy OK
Track 14
Filename f:\Users\Guillermo\Desktop\EAC convertidos\14 Ah perfido!, Op. 65.wav
Pre-gap length 0:00:05.96
Peak level 98.5 %
Extraction speed 3.5 X
Track quality 100.0 %
Test CRC E526B483
Copy CRC E526B483
Copy OK
Track 15
Filename f:\Users\Guillermo\Desktop\EAC convertidos\15 Abscheulicher, wo eilst du hin from Fidelio.wav
Pre-gap length 0:00:05.53
Peak level 91.7 %
Extraction speed 3.5 X
Track quality 100.0 %
Test CRC DB3F9BA2
Copy CRC DB3F9BA2
Copy OK
Track 16
Filename f:\Users\Guillermo\Desktop\EAC convertidos\16 Leise, leise from Der Freischütz.wav
Pre-gap length 0:00:06.40
Peak level 99.5 %
Extraction speed 3.7 X
Track quality 100.0 %
Test CRC 66E790E3
Copy CRC 66E790E3
Copy OK
Track 17
Filename f:\Users\Guillermo\Desktop\EAC convertidos\17 Cavatina- Und ob die Wolke from Der Freischütz.wav
Pre-gap length 0:00:05.62
Peak level 66.8 %
Extraction speed 3.6 X
Track quality 100.0 %
Test CRC CDB572E5
Copy CRC CDB572E5
Copy OK
No errors occurred
End of status report
==== Log checksum AC97E0EB0AA742F93AD204BB30D5092AE50960F617056B71A94FCB73965D8B01 ====

Содержание индексной карты (.CUE)

REM GENRE Opera
REM DATE 2006
REM DISCID E611C311
REM COMMENT "ExactAudioCopy v1.0b3"
FILE "01 O mio babbino caro from Gianni Schicchi.wav" WAVE
TRACK 01 AUDIO
INDEX 01 00:00:00
TRACK 02 AUDIO
INDEX 00 02:20:33
FILE "02 Quando me'n vo' soletta per la via from La bohиme (Musetta's Waltz Song).wav" WAVE
INDEX 01 00:00:00
TRACK 03 AUDIO
INDEX 00 02:06:72
FILE "03 Sм, mi chiamano Mimм from La bohиme.wav" WAVE
INDEX 01 00:00:00
TRACK 04 AUDIO
INDEX 00 04:47:72
FILE "04 Donde lieta usci from La bohиme.wav" WAVE
INDEX 01 00:00:00
TRACK 05 AUDIO
INDEX 00 03:01:26
FILE "05 Chi il bel sogno di Doretta from La rondine.wav" WAVE
INDEX 01 00:00:00
TRACK 06 AUDIO
INDEX 00 02:35:50
FILE "06 Non la sospiri from Tosca.wav" WAVE
INDEX 01 00:00:00
TRACK 07 AUDIO
INDEX 00 02:33:66
FILE "07 Vissi d'arte from Tosca.wav" WAVE
INDEX 01 00:00:00
TRACK 08 AUDIO
INDEX 00 02:56:48
FILE "08 Spira sul mare from Madame Butterfly.wav" WAVE
INDEX 01 00:00:00
TRACK 09 AUDIO
INDEX 00 02:45:69
FILE "09 Un bel di vedremo from Madama Butterfly.wav" WAVE
INDEX 01 00:00:00
TRACK 10 AUDIO
INDEX 00 04:41:55
FILE "10 In quelle trine morbide from Manon Lescaut.wav" WAVE
INDEX 01 00:00:00
TRACK 11 AUDIO
INDEX 00 02:12:45
FILE "11 Tu che di gel sei cinta from Turandot.wav" WAVE
INDEX 01 00:00:00
TRACK 12 AUDIO
INDEX 00 02:40:22
FILE "12 In questa reggia from Turandot.wav" WAVE
INDEX 01 00:00:00
TRACK 13 AUDIO
INDEX 00 05:43:47
FILE "13 Grands dieux! du destin, qui m'accable from Alceste.wav" WAVE
INDEX 01 00:00:00
TRACK 14 AUDIO
INDEX 00 04:08:33
FILE "14 Ah perfido!, Op. 65.wav" WAVE
INDEX 01 00:00:00
TRACK 15 AUDIO
INDEX 00 12:12:67
FILE "15 Abscheulicher, wo eilst du hin from Fidelio.wav" WAVE
INDEX 01 00:00:00
TRACK 16 AUDIO
INDEX 00 06:51:67
FILE "16 Leise, leise from Der Freischьtz.wav" WAVE
INDEX 01 00:00:00
TRACK 17 AUDIO
INDEX 00 07:38:43
FILE "17 Cavatina- Und ob die Wolke from Der Freischьtz.wav" WAVE
INDEX 01 00:00:00

Треклист

GIACOMO PUCCINI:
1. Gianni Schicchi - O mio babbino caro [02:25];
La bohème
2. Quando me'n vo' soletta per la via [02:10];
3. Sì, mi chiamano Mimì [04:52];
4. Donde lieta uscì [03:07];
5. La Rondine (The Swallow) - Chi il bel sogno di Doretta [02:42];
Tosca
6. Non la sospiri [02:40];
7. Vissi d'arte [03:01];
Madama Butterfly
8. Spira sul mare [02:52];
9. Un bel dì vedremo [04:47];
10. Manon Lescaut - In quelle trine morbide [02:18];
Turandot
11. Tu che di gel sei cinta [02:46];
12. In questa reggia [05:48];
Christoph Willibald Gluck:
Alceste (French version)
13. Grands dieux! Du destin, qui m'accable [04:14];
14. Ah! perfido! . . . Per pieta, non dirmi addio, scena and aria for soprano & orchestra, Op. 65 [12:18];
15. Ludwig van Beethoven - Fidelio - Abscheulicher, wo eilst du hin? [06:58];
Carl Maria von Weber:
Der Freischütz, J. 277 (Op. 77)
16. Leise, leise, fromme Weise [07:44];
17. Und ob die Wolke sie verhülle [04:58].



Показать сообщения:    

Текущее время: 08-Дек 09:03

Часовой пояс: UTC + 3


Вы не можете начинать темы
Вы не можете отвечать на сообщения
Вы не можете редактировать свои сообщения
Вы не можете удалять свои сообщения
Вы не можете голосовать в опросах
Вы не можете прикреплять файлы к сообщениям
Вы не можете скачивать файлы