(Medieval, Andalusi) Alfonso X el Sabio (121-1284): Cantigas de Bizancio (Musica Antigua, dir. Eduardo Paniagua) [2xCD] - 2006, WavPack (image+.cue) lossless


 

[Цитировать]

Cantigas de Bizancio
Alfonso X el Sabio (1221-1284)
Eduardo Paniagua
Жанр: Medieval, Andalusí
Страна-производитель диска: Spain
Год издания диска: 2006
Издатель (лейбл): Pneuma
Номер по каталогу: PN2-880
Дата записи: 12 November 2006
Аудиокодек: WavPack
Тип рипа: image+.cue
Битрейт аудио: lossless
Продолжительность: 56:31 (CD1) y 65:45 (CD2)
Источник: собственный рип
Наличие сканов в содержимом раздачи: да

Треклист

CD 1: ICONOS BIZANTINOS E IMÁGENES DE SANTA MARÍA
1. CSM 9: El icono de Damasco. Por que nos ajamos [13:39]
2. CSM 34: El icono perdido. Gran dereit' é que fill' o demo [7:40]
3. CSM 29: La Virgen de la leche. Nas mentes sempre tēer [4:45]
4. CSM 264: Virgen Blacherniotissa. Pois aos seus que ama [9:39]
5. CSM 46: El moro de ultramar y la virgen de la leche. Porque ajan de seer [9:19]
6. CSM 28: El cerco de Constantinopla. Todo logar mui ben pode [11:30]
CD 2: SANTOS, PATRIARCAS Y EMPERADORES
1. CSM 145: San Juan Eleimosynarius. O que pola Virgen de grado [10:23]
2. CSM 265: San Juan Damasceno. Sempr' a Virgen santa [10:54]
3. CSM 131: El emperador y el patriarca. En tamanna coita non pode seer [12:31]
4. CSM 25: El judío de Bizancio.Pagar ben pod' o que dever [13:49]
5. CSM 342: Icono en la piedra. Con razon nas creaturas [9:58]
6. CSM 138: San Juan Crisostomo. Quen a Santa Maria de coraçon [8:10]
CSM: Cantiga de Santa María (Numeradas por W. Mettmann)

Исполнители

Eduardo Paniagua
dirigiendo a MÚSICA ANTIGUA
Cesar Carazo: Canto y viola
Luis Antonio Muñoz: Canto, fídula y pandero
Luis Calero: Canto
Felipe Sánchez: Vihuela de péñola y guitarra medieval
Dimitris Psonis: Santur, lira griega, saz y rabada
Jaime Muñoz: Kavak, ajabeba, cálamo, chalumeau, gaita y gaida
David Mayoral: Darbuka, panderos, panderetas y campanas
Eduardo Paniagua: Tromba marina y flautas dulces

log EACCD1

Exact Audio Copy V0.99 prebeta 4 from 23. January 2008
Отчёт EAC об извлечении, выполненном 2. августа 2009, 8:18
Eduardo Paniagua / Alfonso X el Sabio: Cantigas de Bizancio - CD1
Дисковод: PIONEER DVD-RW DVR-112D Adapter: 0 ID: 1
Режим чтения : Достоверность
Использование точного потока : Да
Отключение кэша аудио : Да
Использование указателей C2 : Нет
Коррекция смещения при чтении : 48
Способность читать области Lead-in и Lead-out : Нет
Заполнение пропущенных сэмплов тишиной : Да
Удаление блоков с тишиной в начале и конце : Нет
При вычислениях CRC использовались нулевые сэмплы : Да
Интерфейс : Встроенный Win32-интерфейс для Win NT/2000
Выходной формат : Внутренние WAV-операции
Формат сэмплов : 44.100 Гц; 16 бит; стерео
TOC извлечённого CD
Трек | Старт | Длительность | Начальный сектор | Конечный сектор
---------------------------------------------------------------------
1 | 0:00.00 | 13:38.67 | 0 | 61416
2 | 13:38.67 | 7:39.43 | 61417 | 95884
3 | 21:18.35 | 4:44.70 | 95885 | 117254
4 | 26:03.30 | 9:38.44 | 117255 | 160648
5 | 35:41.74 | 9:19.28 | 160649 | 202601
6 | 45:01.27 | 11:30.01 | 202602 | 254352
Характеристики диапазона извлечения и сообщения об ошибках
Выбранный диапазон
Имя файла C:\Documents and Settings\Индра\Мои документы\Моя музыка\Eduardo Paniagua - Cantigas de Bizancio - CD1.wav
Пиковый уровень 99.9 %
Качество диапазона 99.9 %
CRC теста 3DB32201
CRC копии 3DB32201
Копирование... OK
Ошибок не произошло
AccurateRip: сводка
Трек 1 точное извлечение (доверие 3) [400FE326]
Трек 2 точное извлечение (доверие 3) [24113638]
Трек 3 точное извлечение (доверие 3) [4366CEB7]
Трек 4 точное извлечение (доверие 3) [1C61540F]
Трек 5 точное извлечение (доверие 3) [3959DD6A]
Трек 6 точное извлечение (доверие 3) [5EFD0C0C]
Все треки извлечены точно
Конец отчёта

CD2

Exact Audio Copy V0.99 prebeta 4 from 23. January 2008
Отчёт EAC об извлечении, выполненном 2. августа 2009, 7:38
Eduardo Paniagua / Alfonso X el Sabio: Cantigas de Bizancio - CD2
Дисковод: PIONEER DVD-RW DVR-112D Adapter: 0 ID: 1
Режим чтения : Достоверность
Использование точного потока : Да
Отключение кэша аудио : Да
Использование указателей C2 : Нет
Коррекция смещения при чтении : 48
Способность читать области Lead-in и Lead-out : Нет
Заполнение пропущенных сэмплов тишиной : Да
Удаление блоков с тишиной в начале и конце : Нет
При вычислениях CRC использовались нулевые сэмплы : Да
Интерфейс : Встроенный Win32-интерфейс для Win NT/2000
Выходной формат : Внутренние WAV-операции
Формат сэмплов : 44.100 Гц; 16 бит; стерео
TOC извлечённого CD
Трек | Старт | Длительность | Начальный сектор | Конечный сектор
---------------------------------------------------------------------
1 | 0:00.00 | 10:23.20 | 0 | 46744
2 | 10:23.20 | 10:53.74 | 46745 | 95793
3 | 21:17.19 | 12:31.19 | 95794 | 152137
4 | 33:48.38 | 13:49.30 | 152138 | 214342
5 | 47:37.68 | 9:57.39 | 214343 | 259156
6 | 57:35.32 | 8:10.12 | 259157 | 295918
Характеристики диапазона извлечения и сообщения об ошибках
Выбранный диапазон
Имя файла C:\Documents and Settings\Индра\Мои документы\Моя музыка\Eduardo Paniagua - Cantigas de Bizancio - CD2.wav
Пиковый уровень 97.2 %
Качество диапазона 99.9 %
CRC теста 00462BFF
CRC копии 00462BFF
Копирование... OK
Ошибок не произошло
AccurateRip: сводка
Трек 1 точное извлечение (доверие 3) [B61841DA]
Трек 2 точное извлечение (доверие 3) [62D07171]
Трек 3 точное извлечение (доверие 3) [9DEFEF76]
Трек 4 точное извлечение (доверие 3) [4689EE54]
Трек 5 точное извлечение (доверие 3) [BD79CAAA]
Трек 6 точное извлечение (доверие 3) [116E5227]
Все треки извлечены точно
Конец отчёта

AudiocheckerCD1

AUDIOCHECKER v2.0 beta (build 457) - by Dester - opdester@freemail.hu
~~~~~~~~~~~~~~~~~~~~~~~~~~~~~~~~~~
Начато: суббота, 25. 07. 2015. - 17:25.15
Найдено файлов: 1
1 -===- C:\Documents and Settings\Agni\Мои документы\Foobar\Eduardo Paniagua - Cantigas de Bizancio - CD1.wav
Заключение: этот трек - CDDA с вероятностью 100%
Завершено: суббота, 25. 07. 2015. - 17:27.15 (Время операции: 0:01.59)

CD2

AUDIOCHECKER v2.0 beta (build 457) - by Dester - opdester@freemail.hu
~~~~~~~~~~~~~~~~~~~~~~~~~~~~~~~~~~
Начато: суббота, 25. 07. 2015. - 17:31.25
Найдено файлов: 1
1 -===- C:\Documents and Settings\Agni\Мои документы\Foobar\Eduardo Paniagua - Cantigas de Bizancio - CD2.wav
Заключение: этот трек - CDDA с вероятностью 100%
Завершено: суббота, 25. 07. 2015. - 17:33.43 (Время операции: 0:02.17)

AudiospectreCD1

CD2




Показать сообщения:    

Текущее время: 04-Дек 06:57

Часовой пояс: UTC + 3


Вы не можете начинать темы
Вы не можете отвечать на сообщения
Вы не можете редактировать свои сообщения
Вы не можете удалять свои сообщения
Вы не можете голосовать в опросах
Вы не можете прикреплять файлы к сообщениям
Вы не можете скачивать файлы