(Classical) Heinrich Schutz - The Complete Narrative Works - Ars Nova Copenhagen, Paul Hillier - 4CD - 2011, FLAC (image+.cue) lossless


Статистика раздачи [Обновить пиров]
Размер:  1.05 GB   |    Зарегистрирован:  8 месяцев 17 дней   |    Скачан:  0 раз

Полного источника не было: Никогда

 
   
 
 
 

[Цитировать]

Heinrich Schütz - The Complete Narrative Works - Ars Nova Copenhagen, Paul Hillier
Жанр: Classical
Страна-производитель диска: Denmark
Год издания диска: 2011
Издатель (лейбл): Dacapo
Номер по каталогу: 8.204035
Дата записи: 2007-2010
Аудиокодек: FLAC
Тип рипа: image+.cue
Битрейт аудио: lossless
Продолжительность: 4:04:23
Источник: собственный рип
Наличие сканов в содержимом раздачи: да
Треклист:
Heinrich Schütz (1585-1672)
The Complete Narrative Works

CD1

[1]-[8] Lukas-Passion, SWV 480 (1666)
Johan Linderoth evangelist
Jakob Bloch Jespersen Jesus

CD2

[1]-[19] Weihnachtshistorie, SWV 435 (c.1660)
Adam Riis evangelist
Else Torp Der Engel
Jakob Bloch Jespersen Herodes
[20]-[29] Auferstehungshistorie, SWV 450 (c.1623)
Johan Linderoth evangelist

CD3

[1]-[11] Die Sieben Worte, SWV 478 (before 1658)
[12]-[19] Johannes-Passion, SWV 481 (1666)
Adam Riis evangelist
Jakob Bloch Jespersen Jesus

CD4

[1]-[8] Matthäus-Passion, SWV 479 (1666)
Julian Podger evangelist
Jakob Bloch Jespersen Christus
Исполнители:
Ars Nova Copenhagen
Paul Hillier

Лог создания рипа: CD1

Exact Audio Copy V1.0 beta 3 from 29. August 2011
EAC extraction logfile from 21. July 2014, 18:09
Johan Linderoth, Jakob Bloch Jespersen, Ars Nova Copenhagen, Paul Hillier / Schutz - Lukas-Passion, SWV 480
Used drive : HL-DT-STDVDRRW GWA-4164B Adapter: 5 ID: 0
Read mode : Secure
Utilize accurate stream : Yes
Defeat audio cache : Yes
Make use of C2 pointers : No
Read offset correction : 102
Overread into Lead-In and Lead-Out : No
Fill up missing offset samples with silence : Yes
Delete leading and trailing silent blocks : No
Null samples used in CRC calculations : Yes
Used interface : Native Win32 interface for Win NT & 2000
Used output format : User Defined Encoder
Selected bitrate : 896 kBit/s
Quality : High
Add ID3 tag : No
Command line compressor : C:\Program Files\Exact Audio Copy\FLAC\FLAC.EXE
Additional command line options : -V -8 %source%
TOC of the extracted CD
Track | Start | Length | Start sector | End sector
---------------------------------------------------------
1 | 0:00.00 | 1:33.58 | 0 | 7032
2 | 1:33.58 | 14:02.21 | 7033 | 70203
3 | 15:36.04 | 9:17.32 | 70204 | 112010
4 | 24:53.36 | 3:19.61 | 112011 | 126996
5 | 28:13.22 | 7:19.11 | 126997 | 159932
6 | 35:32.33 | 11:07.45 | 159933 | 210002
7 | 46:40.03 | 3:54.02 | 210003 | 227554
8 | 50:34.05 | 2:07.05 | 227555 | 237084
Range status and errors
Selected range
Filename D:\temp\Music\Schutz - The Complete Narrative Works\CD1 - Lukas Passion\Schutz - Lukas-Passion.wav
Peak level 94.0 %
Extraction speed 2.6 X
Range quality 100.0 %
Test CRC 614F643F
Copy CRC 614F643F
Copy OK
No errors occurred
AccurateRip summary
Track 1 accurately ripped (confidence 9) [1CD1732C] (AR v2)
Track 2 accurately ripped (confidence 9) [83A2B7FE] (AR v2)
Track 3 accurately ripped (confidence 9) [36C7667E] (AR v2)
Track 4 accurately ripped (confidence 9) [0BACD052] (AR v2)
Track 5 accurately ripped (confidence 9) [964AB0B2] (AR v2)
Track 6 accurately ripped (confidence 9) [1069D0B0] (AR v2)
Track 7 accurately ripped (confidence 9) [88C3BAC4] (AR v2)
Track 8 accurately ripped (confidence 9) [CC73557E] (AR v2)
All tracks accurately ripped
End of status report
==== Log checksum B7AD51CF9E00DCE62FA667D327A2D95FF974D52187A2C0D926A78C072183EE51 ====

Лог создания рипа: CD2

Exact Audio Copy V1.0 beta 3 from 29. August 2011
EAC extraction logfile from 23. July 2014, 2:42
Ars Nova Copenhagen, Paul Hillier / Schutz - Weihnachtshistorie; Auferstehungshistorie
Used drive : HL-DT-STDVDRAM GU70N Adapter: 0 ID: 0
Read mode : Secure
Utilize accurate stream : Yes
Defeat audio cache : Yes
Make use of C2 pointers : No
Read offset correction : 48
Overread into Lead-In and Lead-Out : No
Fill up missing offset samples with silence : Yes
Delete leading and trailing silent blocks : No
Null samples used in CRC calculations : Yes
Used interface : Native Win32 interface for Win NT & 2000
Used output format : User Defined Encoder
Selected bitrate : 128 kBit/s
Quality : High
Add ID3 tag : No
Command line compressor : C:\Program Files (x86)\Exact Audio Copy\Flac\flac.exe
Additional command line options : -V -8 -T "Date=%year%" -T "Genre=%genre%" %source%
TOC of the extracted CD
Track | Start | Length | Start sector | End sector
---------------------------------------------------------
1 | 0:00.00 | 1:17.53 | 0 | 5827
2 | 1:17.53 | 2:56.30 | 5828 | 19057
3 | 4:14.08 | 3:00.08 | 19058 | 32565
4 | 7:14.16 | 0:13.30 | 32566 | 33570
5 | 7:27.46 | 1:45.66 | 33571 | 41511
6 | 9:13.37 | 0:13.73 | 41512 | 42559
7 | 9:27.35 | 1:27.59 | 42560 | 49143
8 | 10:55.19 | 2:43.52 | 49144 | 61420
9 | 13:38.71 | 2:00.41 | 61421 | 70461
10 | 15:39.37 | 0:34.67 | 70462 | 73078
11 | 16:14.29 | 2:52.49 | 73079 | 86027
12 | 19:07.03 | 0:37.27 | 86028 | 88829
13 | 19:44.30 | 2:09.48 | 88830 | 98552
14 | 21:54.03 | 2:08.43 | 98553 | 108195
15 | 24:02.46 | 1:51.42 | 108196 | 116562
16 | 25:54.13 | 3:07.63 | 116563 | 130650
17 | 29:02.01 | 1:43.60 | 130651 | 138435
18 | 30:45.61 | 1:54.31 | 138436 | 147016
19 | 32:40.17 | 2:02.58 | 147017 | 156224
20 | 34:43.00 | 1:04.31 | 156225 | 161055
21 | 35:47.31 | 9:33.52 | 161056 | 204082
22 | 45:21.08 | 6:52.04 | 204083 | 234986
23 | 52:13.12 | 2:43.47 | 234987 | 247258
24 | 54:56.59 | 1:39.67 | 247259 | 254750
25 | 56:36.51 | 2:06.65 | 254751 | 264265
26 | 58:43.41 | 10:31.55 | 264266 | 311645
27 | 69:15.21 | 6:19.15 | 311646 | 340085
28 | 75:34.36 | 1:44.16 | 340086 | 347901
29 | 77:18.52 | 1:31.01 | 347902 | 354727
Range status and errors
Selected range
Filename C:\temp\Schutz - The Complete Narrative Works\CD2 - Weihnachtshistorie; Auferstehungshistorie\Schutz - Weihnachtshistorie; Auferstehungshistorie.wav
Peak level 96.7 %
Extraction speed 2.3 X
Range quality 100.0 %
Test CRC BAC31A60
Copy CRC BAC31A60
Copy OK
No errors occurred
AccurateRip summary
Track 1 accurately ripped (confidence 9) [FFAF9EBD] (AR v2)
Track 2 accurately ripped (confidence 9) [64DAE18E] (AR v2)
Track 3 accurately ripped (confidence 9) [B82ED28E] (AR v2)
Track 4 accurately ripped (confidence 9) [19DFA08F] (AR v2)
Track 5 accurately ripped (confidence 9) [0B206575] (AR v2)
Track 6 accurately ripped (confidence 9) [CB7C4964] (AR v2)
Track 7 accurately ripped (confidence 9) [6921E879] (AR v2)
Track 8 accurately ripped (confidence 9) [EE460EB0] (AR v2)
Track 9 accurately ripped (confidence 9) [A1D6C83C] (AR v2)
Track 10 accurately ripped (confidence 9) [3AA0B5D7] (AR v2)
Track 11 accurately ripped (confidence 9) [9BFF7C8E] (AR v2)
Track 12 accurately ripped (confidence 9) [D7E3A876] (AR v2)
Track 13 accurately ripped (confidence 9) [DA5B6FD1] (AR v2)
Track 14 accurately ripped (confidence 9) [88713A1A] (AR v2)
Track 15 accurately ripped (confidence 9) [9F994245] (AR v2)
Track 16 accurately ripped (confidence 9) [D37F5206] (AR v2)
Track 17 accurately ripped (confidence 9) [7DD9A512] (AR v2)
Track 18 accurately ripped (confidence 9) [FC47A6CB] (AR v2)
Track 19 accurately ripped (confidence 9) [187EEE97] (AR v2)
Track 20 accurately ripped (confidence 9) [48422520] (AR v2)
Track 21 accurately ripped (confidence 9) [A11E227A] (AR v2)
Track 22 accurately ripped (confidence 9) [2C9E5DB4] (AR v2)
Track 23 accurately ripped (confidence 9) [8F3B13F6] (AR v2)
Track 24 accurately ripped (confidence 9) [9B64E49E] (AR v2)
Track 25 accurately ripped (confidence 9) [F8418514] (AR v2)
Track 26 accurately ripped (confidence 9) [15D7EA29] (AR v2)
Track 27 accurately ripped (confidence 9) [870D4109] (AR v2)
Track 28 accurately ripped (confidence 9) [488112F8] (AR v2)
Track 29 accurately ripped (confidence 9) [B425D591] (AR v2)
All tracks accurately ripped
End of status report
==== Log checksum 984D0627D0A60CA6AE68C8DFF0725C9D9A5D816BB48AA8D6AEE1351FF022E6A2 ====

Лог создания рипа: CD3

Exact Audio Copy V1.0 beta 3 from 29. August 2011
EAC extraction logfile from 2. August 2014, 17:09
Adam Riis, Jakob Bloch Jespersen, Ars Nova Copenhagen, Paul Hillier / Schutz - Die Sieben Worte; Johannes-Passion
Used drive : HL-DT-STDVDRAM GU70N Adapter: 0 ID: 0
Read mode : Secure
Utilize accurate stream : Yes
Defeat audio cache : Yes
Make use of C2 pointers : No
Read offset correction : 48
Overread into Lead-In and Lead-Out : No
Fill up missing offset samples with silence : Yes
Delete leading and trailing silent blocks : No
Null samples used in CRC calculations : Yes
Used interface : Native Win32 interface for Win NT & 2000
Used output format : User Defined Encoder
Selected bitrate : 128 kBit/s
Quality : High
Add ID3 tag : No
Command line compressor : C:\Program Files (x86)\Exact Audio Copy\Flac\flac.exe
Additional command line options : -V -8 -T "Date=%year%" -T "Genre=%genre%" %source%
TOC of the extracted CD
Track | Start | Length | Start sector | End sector
---------------------------------------------------------
1 | 0:00.00 | 2:17.20 | 0 | 10294
2 | 2:17.20 | 1:18.34 | 10295 | 16178
3 | 3:35.54 | 1:02.03 | 16179 | 20831
4 | 4:37.57 | 2:23.58 | 20832 | 31614
5 | 7:01.40 | 2:58.10 | 31615 | 44974
6 | 9:59.50 | 2:20.03 | 44975 | 55477
7 | 12:19.53 | 0:50.38 | 55478 | 59265
8 | 13:10.16 | 1:23.20 | 59266 | 65510
9 | 14:33.36 | 1:52.46 | 65511 | 73956
10 | 16:26.07 | 1:29.74 | 73957 | 80705
11 | 17:56.06 | 2:02.32 | 80706 | 89887
12 | 19:58.38 | 1:36.29 | 89888 | 97116
13 | 21:34.67 | 4:28.62 | 97117 | 117278
14 | 26:03.54 | 5:36.53 | 117279 | 142531
15 | 31:40.32 | 6:23.40 | 142532 | 171296
16 | 38:03.72 | 2:14.55 | 171297 | 181401
17 | 40:18.52 | 6:21.01 | 181402 | 209977
18 | 46:39.53 | 8:59.18 | 209978 | 250420
19 | 55:38.71 | 2:29.73 | 250421 | 261668
Range status and errors
Selected range
Filename C:\temp\Schutz - The Complete Narrative Works\CD3 - Die Sieben Worte; Johannes-Passion\Schutz - Die Sieben Worte; Johannes-Passion.wav
Peak level 100.0 %
Extraction speed 5.1 X
Range quality 100.0 %
Test CRC 8AC523E6
Copy CRC 8AC523E6
Copy OK
No errors occurred
AccurateRip summary
Track 1 accurately ripped (confidence 8) [76804CE0] (AR v2)
Track 2 accurately ripped (confidence 8) [81F4818A] (AR v2)
Track 3 accurately ripped (confidence 8) [2BBDDF02] (AR v2)
Track 4 accurately ripped (confidence 8) [EEEB7DC2] (AR v2)
Track 5 accurately ripped (confidence 8) [0CEDBCA8] (AR v2)
Track 6 accurately ripped (confidence 8) [61C78BE5] (AR v2)
Track 7 accurately ripped (confidence 8) [D38E563E] (AR v2)
Track 8 accurately ripped (confidence 8) [A59EFEAF] (AR v2)
Track 9 accurately ripped (confidence 8) [09E6C565] (AR v2)
Track 10 accurately ripped (confidence 8) [158B6F1C] (AR v2)
Track 11 accurately ripped (confidence 8) [77F29E9E] (AR v2)
Track 12 accurately ripped (confidence 8) [C201FB2F] (AR v2)
Track 13 accurately ripped (confidence 8) [A0B7144A] (AR v2)
Track 14 accurately ripped (confidence 8) [2D3CF78F] (AR v2)
Track 15 accurately ripped (confidence 8) [F7C69609] (AR v2)
Track 16 accurately ripped (confidence 8) [BCD13DA1] (AR v2)
Track 17 accurately ripped (confidence 8) [DEEE0FE9] (AR v2)
Track 18 accurately ripped (confidence 8) [3A457B11] (AR v2)
Track 19 accurately ripped (confidence 8) [C4AB7A78] (AR v2)
All tracks accurately ripped
End of status report
==== Log checksum 718095F87B5647FA196BFF8C20CDBEF650DBC05D9C8546BA5C4AFDE2C34608D0 ====

Лог создания рипа: CD4

Exact Audio Copy V1.0 beta 3 from 29. August 2011
EAC extraction logfile from 2. August 2014, 20:01
Julian Podger, Jakob Bloch Jespersen, Ars Nova Copenhagen, Paul Hillier / Schutz - Matthaus-Passion
Used drive : HL-DT-STDVDRAM GU70N Adapter: 0 ID: 0
Read mode : Secure
Utilize accurate stream : Yes
Defeat audio cache : Yes
Make use of C2 pointers : No
Read offset correction : 48
Overread into Lead-In and Lead-Out : No
Fill up missing offset samples with silence : Yes
Delete leading and trailing silent blocks : No
Null samples used in CRC calculations : Yes
Used interface : Native Win32 interface for Win NT & 2000
Used output format : User Defined Encoder
Selected bitrate : 128 kBit/s
Quality : High
Add ID3 tag : No
Command line compressor : C:\Program Files (x86)\Exact Audio Copy\Flac\flac.exe
Additional command line options : -V -8 -T "Date=%year%" -T "Genre=%genre%" %source%
TOC of the extracted CD
Track | Start | Length | Start sector | End sector
---------------------------------------------------------
1 | 0:00.00 | 1:00.68 | 0 | 4567
2 | 1:00.68 | 12:03.73 | 4568 | 58865
3 | 13:04.66 | 7:49.23 | 58866 | 94063
4 | 20:54.14 | 4:04.47 | 94064 | 112410
5 | 24:58.61 | 11:40.56 | 112411 | 164966
6 | 36:39.42 | 10:37.35 | 164967 | 212776
7 | 47:17.02 | 4:00.49 | 212777 | 230825
8 | 51:17.51 | 3:24.62 | 230826 | 246187
Range status and errors
Selected range
Filename C:\temp\Schutz - The Complete Narrative Works\CD4 - Matthaus-Passion\Schutz - Matthaus-Passion.wav
Peak level 99.1 %
Extraction speed 5.0 X
Range quality 99.9 %
Test CRC A7987D88
Copy CRC A7987D88
Copy OK
No errors occurred
AccurateRip summary
Track 1 accurately ripped (confidence 8) [65F6F5FF] (AR v2)
Track 2 accurately ripped (confidence 9) [38B0DA33] (AR v2)
Track 3 accurately ripped (confidence 9) [309D0583] (AR v2)
Track 4 accurately ripped (confidence 9) [9BE0E6BB] (AR v2)
Track 5 accurately ripped (confidence 9) [6B915E1D] (AR v2)
Track 6 accurately ripped (confidence 9) [7FD5077A] (AR v2)
Track 7 accurately ripped (confidence 9) [751209F9] (AR v2)
Track 8 accurately ripped (confidence 9) [76F0D72C] (AR v2)
All tracks accurately ripped
End of status report
==== Log checksum 30B411D4424EB49CE888837BE9785605E546A64DEA14F610A0AF62430D98101A ====
[teatrix.ru].t21905.torrent 
Торрент: Зарегистрирован [ 2016-03-20 12:50 ] · 3C80A87CA68EE69BCA36BE1CDB44D4895354DF7E

Скачать .torrent

Скачать

27 KB

Статус: проверено
Скачан: 0 раз
Размер: 1.05 GB
terms.php



Быстрый ответ

Имя:

      
Для отправки сообщений необходимо включить JavaScript
Показать сообщения:    

Текущее время: 06-Дек 13:15

Часовой пояс: UTC + 3


Вы можете начинать темы
Вы можете отвечать на сообщения
Вы не можете редактировать свои сообщения
Вы не можете удалять свои сообщения
Вы не можете голосовать в опросах
Вы не можете прикреплять файлы к сообщениям
Вы можете скачивать файлы