Человек слова - Этьен Рода-Жиль / Etienne Roda-Gil, un homme de paroles (Шарлотта Сильвера / Charlotte Silvera) [2014, документальный, биографический, музыка, DVB] Original (Fre) + Sub (Rus, Eng, Fre, Deu)


Статистика раздачи [Обновить пиров]
Размер:  1.21 GB   |    Зарегистрирован:  8 месяцев 21 день   |    Скачан:  0 раз

Полного источника не было: Никогда

 
   
 
 
 

[Цитировать]

Человек слова - Этьен Рода-Жиль
Étienne Roda-Gil, un homme de paroles- Дата/Год выпуска: 2014
Страна: Франция
Жанр: документальный, биографический, музыка
Продолжительность: 00:52:54
Перевод: Субтитры
Доп. инфо о переводе: русский перевод Г.Мирзоевой, Éclair Group
Русские субтитры: естьФормат субтитров: prerendered (IDX+SUB)
Доп. информация о субтитрах: русские, английские, французские, немецкие, нидерландские, румынские
Оригинальная аудиодорожка: французский
Режиссер: Шарлотта Сильвера / Charlotte Silvera
Телеканал: TV5MONDE Europe
В ролях: Жюльен Клер, Ванесса Паради, Софи Марсо, Джонни Халлидей (Archive)
Описание: Этьен Рода-Жиль (1941-2004) за 30 лет творчества написал 747 песен, среди которых "La Californie" и " Niagara" для Жюльена Клера; альбом "Cadillac" для Джонни Халлидея; "Joe le taxi", "Manolo Manolete", "Marylin et John" для Ванессы Паради; "Magnolias for Ever" и "Alexandrie, Alexandra" для Клода Франсуа.
Доп. информация: Hot Bird (13.0°E) DVB-S

качество: DVB
формат: MKV
Видео: MPEG Video 2, 720x576@1024x576 (16:9), 25 fps, ~3009 kbps avg, 0.290 bit/pixel
Аудио: MPEG Audio 2, 2 ch, 48 kHz, ~192.00 kbps avg - французский

MediaInfo

Общее
Уникальный идентификатор : 231583649843980313560424817492362049513 (0xAE39637A67A981F8844B297C16FCB7E9)
Полное имя : F:\My Torrents 3\[apreder]Etienne_Roda-Gil_un_homme_de_paroles(2014)DVB.mkv
Формат : Matroska
Версия формата : Version 2
Размер файла : 1,21 Гбайт
Продолжительность : 52 м.
Режим общего битрейта : Переменный
Общий поток : 3265 Кбит/сек
Дата кодирования : UTC 2015-08-02 16:34:42
Программа кодирования : mkvmerge v8.2.0 ('World of Adventure') 64bit
Библиотека кодирования : libebml v1.3.1 + libmatroska v1.4.2
Attachements : cover.jpg / cover_small.jpg
Видео
Идентификатор : 1
Формат : MPEG Video
Версия формата : Version 2
Профиль формата : Main@Main
Параметр BVOP формата : Да
Параметр матрицы формата : Выборочная
Параметр GOP формата : M=4, N=12
Format_Settings_PictureStructure : Frame
Идентификатор кодека : V_MPEG2
Идентификатор кодека/Информация : MPEG 1 or 2 Video
Продолжительность : 52 м.
Вид битрейта : Переменный
Битрейт : 3009 Кбит/сек
Ширина : 720 пикселей
Высота : 576 пикселей
Соотношение сторон : 16:9
Режим частоты кадров : Постоянный
Частота кадров : 25,000 кадров/сек
Стандарт вещания : PAL
Цветовое пространство : YUV
Субдискретизация насыщенности : 4:2:0
Битовая глубина : 8 бит
Тип развёртки : Чересстрочная
Порядок развёртки : Верхнее поле первое
Метод сжатия : С потерями
Бит/(Пиксели*Кадры) : 0.290
Временной код первого кадра : 00:00:00:00
Оригинал временного кода : Group of pictures header
Размер потока : 1,11 Гбайт (92%)
Default : Да
Forced : Нет
Аудио
Идентификатор : 2
Формат : MPEG Audio
Версия формата : Version 1
Профиль формата : Layer 2
Режим : Joint stereo
Расширение режима : Intensity Stereo + MS Stereo
Идентификатор кодека : A_MPEG/L2
Идентификатор кодека/Подсказка : MP2
Продолжительность : 52 м.
Вид битрейта : Постоянный
Битрейт : 192 Кбит/сек
Каналы : 2 канала
Частота : 48,0 КГц
Метод сжатия : С потерями
Размер потока : 72,7 Мбайт (6%)
Язык : French
Default : Да
Forced : Нет
Текст #1
Идентификатор : 3
Формат : VobSub
Идентификатор кодека : S_VOBSUB
Идентификатор кодека/Информация : Picture based subtitle format used on DVDs
Язык : Russian
Default : Да
Forced : Нет
Текст #2
Идентификатор : 4
Формат : VobSub
Идентификатор кодека : S_VOBSUB
Идентификатор кодека/Информация : Picture based subtitle format used on DVDs
Язык : English
Default : Нет
Forced : Нет
Текст #3
Идентификатор : 5
Формат : VobSub
Идентификатор кодека : S_VOBSUB
Идентификатор кодека/Информация : Picture based subtitle format used on DVDs
Язык : French
Default : Нет
Forced : Нет
Текст #4
Идентификатор : 6
Формат : VobSub
Идентификатор кодека : S_VOBSUB
Идентификатор кодека/Информация : Picture based subtitle format used on DVDs
Язык : German
Default : Нет
Forced : Нет
Текст #5
Идентификатор : 7
Формат : VobSub
Идентификатор кодека : S_VOBSUB
Идентификатор кодека/Информация : Picture based subtitle format used on DVDs
Язык : Dutch
Default : Нет
Forced : Нет
Текст #6
Идентификатор : 8
Формат : VobSub
Идентификатор кодека : S_VOBSUB
Идентификатор кодека/Информация : Picture based subtitle format used on DVDs
Язык : Romanian
Default : Нет
Forced : Нет

Скриншоты


Резервные скриншоты


-[2'523]
[teatrix.ru].t21907.torrent 
Торрент: Зарегистрирован [ 2016-03-20 12:50 ] · 4130CD6A9BC656BEF51357D4FD41E61603BB7035

Скачать .torrent

Скачать

13 KB

Статус: проверено
Скачан: 0 раз
Размер: 1.21 GB
terms.php



Быстрый ответ

Имя:

      
Для отправки сообщений необходимо включить JavaScript
Показать сообщения:    

Текущее время: 10-Дек 23:28

Часовой пояс: UTC + 3


Вы можете начинать темы
Вы можете отвечать на сообщения
Вы не можете редактировать свои сообщения
Вы не можете удалять свои сообщения
Вы не можете голосовать в опросах
Вы не можете прикреплять файлы к сообщениям
Вы можете скачивать файлы