(Opera) Georges Bizet - Les Pecheurs de Perles / Жорж Бизе - Искатели жемчуга (Andre Cluytens; Martha Angelici, Michel Dens, Henri Legay, Louis Noguera), 1954 - Studio recording / 1994 - FLAC (tracks+.cue), lossless


 

[Цитировать]

Georges Bizet - Les Pecheurs de perles / Жорж Бизе - Искатели жемчуга (André Cluytens; Martha Angelici, Michel Dens, Henri Legay, Louis Noguera)
Жанр: Opera
Страна-производитель диска: Франция
Год издания диска: 1994
Издатель (лейбл): EMI Classics
Дата записи: 1954
Аудиокодек: FLAC
Тип рипа: tracks+.cue
Битрейт аудио: lossless
Продолжительность: 106:39
Источник: релизер (Guilllermo)
Исполнители:
Leila - Martha Angelici,
Zurga - Michel Dens,
Nadir - Henri Legay,
Nourabad - Louis Noguera.
André Cluytens, Conductor
Orchestra and Chorus of L'Opéra-Comique de Paris
Studio recording made at Palais de la Mutualite, Paris, June 22-30, 1954.

Лог создания рипаЛог создания рипа CD 1

Exact Audio Copy V1.0 beta 3 from 29. August 2011
EAC extraction logfile from 1. August 2015, 8:28
Bizet, Georges / Les Pecheurs de Perles (Angelici, Legay, Dens, Nogera, Cluytens)
Used drive : HL-DT-STDVDRAM GH24NSC0 Adapter: 3 ID: 0
Read mode : Secure
Utilize accurate stream : Yes
Defeat audio cache : Yes
Make use of C2 pointers : No
Read offset correction : 6
Overread into Lead-In and Lead-Out : No
Fill up missing offset samples with silence : Yes
Delete leading and trailing silent blocks : No
Null samples used in CRC calculations : Yes
Used interface : Native Win32 interface for Win NT & 2000
Gap handling : Appended to previous track
Used output format : User Defined Encoder
Selected bitrate : 768 kBit/s
Quality : High
Add ID3 tag : No
Command line compressor : C:\Program Files (x86)\Exact Audio Copy\FLAC\FLAC.EXE
Additional command line options : -8 -V -T "ARTIST=%artist%" -T "TITLE=%title%" -T "ALBUM=%albumtitle%" -T "DATE=%year%" -T "TRACKNUMBER=%tracknr%" -T "GENRE=%genre%" -T "PERFORMER=%albuminterpret%" -T "COMPOSER=%composer%" %haslyrics%--tag-from-file=LYRICS="%lyricsfile%"%haslyrics% -T "ALBUMARTIST=%albumartist%" -T "DISCNUMBER=%cdnumber%" -T "TOTALDISCS=%totalcds%" -T "TOTALTRACKS=%numtracks%" -T "COMMENT=%comment%" %source% -o %dest%
TOC of the extracted CD
Track | Start | Length | Start sector | End sector
---------------------------------------------------------
1 | 0:00.32 | 2:39.70 | 32 | 12026
2 | 2:40.27 | 3:40.48 | 12027 | 28574
3 | 6:21.00 | 3:53.22 | 28575 | 46071
4 | 10:14.22 | 1:47.05 | 46072 | 54101
5 | 12:01.27 | 2:52.58 | 54102 | 67059
6 | 14:54.10 | 4:56.10 | 67060 | 89269
7 | 19:50.20 | 3:15.05 | 89270 | 103899
8 | 23:05.25 | 3:13.65 | 103900 | 118439
9 | 26:19.15 | 7:39.50 | 118440 | 152914
10 | 33:58.65 | 1:54.52 | 152915 | 161516
11 | 35:53.42 | 2:53.23 | 161517 | 174514
12 | 38:46.65 | 1:51.05 | 174515 | 182844
13 | 40:37.70 | 5:11.20 | 182845 | 206189
14 | 45:49.15 | 7:46.47 | 206190 | 241186
Track 1
Filename f:\Users\Guillermo\Desktop\EAC convertidos\01 Prélude.wav
Pre-gap length 0:00:02.42
Copy aborted
Track 2
Copy aborted
Track 3
Copy aborted
Track 4
Copy aborted
Track 5
Copy aborted
Track 6
Copy aborted
Track 7
Copy aborted
Track 8
Copy aborted
Track 9
Pre-gap length 0:00:04.40
Copy aborted
Track 10
Copy aborted
Track 11
Copy aborted
Track 12
Copy aborted
Track 13
Copy aborted
Track 14
Pre-gap length 0:00:07.86
Copy aborted
There were errors
End of status report
==== Log checksum 1D497F342DA5B2EDE513F0C99C6EFD5EAE8417BAB4D261FF3D015AD18336B048 ====
------------------------------------------------------------
Exact Audio Copy V1.0 beta 3 from 29. August 2011
EAC extraction logfile from 1. August 2015, 13:03
Bizet, Georges / Les Pecheurs de Perles (Angelici, Legay, Dens, Nogera, Cluytens)
Used drive : HL-DT-STDVDRAM GH24NSC0 Adapter: 3 ID: 0
Read mode : Secure
Utilize accurate stream : Yes
Defeat audio cache : Yes
Make use of C2 pointers : Yes
Read offset correction : 6
Overread into Lead-In and Lead-Out : No
Fill up missing offset samples with silence : Yes
Delete leading and trailing silent blocks : Yes
Null samples used in CRC calculations : Yes
Used interface : Native Win32 interface for Win NT & 2000
Gap handling : Appended to previous track
Used output format : User Defined Encoder
Selected bitrate : 768 kBit/s
Quality : High
Add ID3 tag : No
Command line compressor : C:\Program Files (x86)\Exact Audio Copy\FLAC\FLAC.EXE
Additional command line options : -8 -V -T "ARTIST=%artist%" -T "TITLE=%title%" -T "ALBUM=%albumtitle%" -T "DATE=%year%" -T "TRACKNUMBER=%tracknr%" -T "GENRE=%genre%" -T "PERFORMER=%albuminterpret%" -T "COMPOSER=%composer%" %haslyrics%--tag-from-file=LYRICS="%lyricsfile%"%haslyrics% -T "ALBUMARTIST=%albumartist%" -T "DISCNUMBER=%cdnumber%" -T "TOTALDISCS=%totalcds%" -T "TOTALTRACKS=%numtracks%" -T "COMMENT=%comment%" %source% -o %dest%
TOC of the extracted CD
Track | Start | Length | Start sector | End sector
---------------------------------------------------------
1 | 0:00.32 | 2:39.70 | 32 | 12026
2 | 2:40.27 | 3:40.48 | 12027 | 28574
3 | 6:21.00 | 3:53.22 | 28575 | 46071
4 | 10:14.22 | 1:47.05 | 46072 | 54101
5 | 12:01.27 | 2:52.58 | 54102 | 67059
6 | 14:54.10 | 4:56.10 | 67060 | 89269
7 | 19:50.20 | 3:15.05 | 89270 | 103899
8 | 23:05.25 | 3:13.65 | 103900 | 118439
9 | 26:19.15 | 7:39.50 | 118440 | 152914
10 | 33:58.65 | 1:54.52 | 152915 | 161516
11 | 35:53.42 | 2:53.23 | 161517 | 174514
12 | 38:46.65 | 1:51.05 | 174515 | 182844
13 | 40:37.70 | 5:11.20 | 182845 | 206189
14 | 45:49.15 | 7:46.47 | 206190 | 241186
Track 1
Filename f:\Users\Guillermo\Desktop\EAC convertidos\01 Prélude.wav
Pre-gap length 0:00:02.42
Peak level 72.6 %
Extraction speed 1.0 X
Track quality 99.8 %
Test CRC F6995BF3
Copy CRC F6995BF3
Copy OK
Track 2
Filename f:\Users\Guillermo\Desktop\EAC convertidos\02 ACTE 1. N° 1 - Choeur- »Sur la grève en feu«.wav
Peak level 80.8 %
Extraction speed 1.6 X
Track quality 100.0 %
Test CRC 33ADE991
Copy CRC 33ADE991
Copy OK
Track 3
Filename f:\Users\Guillermo\Desktop\EAC convertidos\03 N° 1 - Scène et choeur- »Amis, interrompez vos danses« (Zurga,Nadir,Choeur).wav
Peak level 71.3 %
Extraction speed 1.7 X
Track quality 100.0 %
Test CRC 38111F48
Copy CRC 38111F48
Copy OK
Track 4
Filename f:\Users\Guillermo\Desktop\EAC convertidos\04 N° 1 - Récit et reprise du choeur dansé- »Demeure parmi nous, Nadir« (Zurga,Nadir,Choeur).wav
Peak level 85.1 %
Extraction speed 1.1 X
Track quality 99.8 %
Test CRC 5C2112F3
Copy CRC 5C2112F3
Copy OK
Track 5
Filename f:\Users\Guillermo\Desktop\EAC convertidos\05 N° 2 - Récit- »C'est toi! toi qu'enfin je revois« (Zurga,Nadir).wav
Peak level 72.1 %
Extraction speed 1.8 X
Track quality 100.0 %
Test CRC 0749AE19
Copy CRC 0749AE19
Copy OK
Track 6
Filename f:\Users\Guillermo\Desktop\EAC convertidos\06 N° 2 - Duo- »Au fond du temple saint« (Zurga,Nadir).wav
Peak level 67.1 %
Extraction speed 2.1 X
Track quality 100.0 %
Test CRC 274D6C74
Copy CRC 274D6C74
Copy OK
Track 7
Filename f:\Users\Guillermo\Desktop\EAC convertidos\07 N° 3 - Récit- »Que vois-je« (Zurga,Nadir).wav
Peak level 58.8 %
Extraction speed 2.1 X
Track quality 100.0 %
Test CRC 7E6FE768
Copy CRC 7E6FE768
Copy OK
Track 8
Filename f:\Users\Guillermo\Desktop\EAC convertidos\08 N° 3 - Choeur- »Elle vient... Sois la bienvenue«.wav
Peak level 50.0 %
Extraction speed 2.2 X
Track quality 100.0 %
Test CRC CB41EF28
Copy CRC CB41EF28
Copy OK
Track 9
Filename f:\Users\Guillermo\Desktop\EAC convertidos\09 N° 3 - Scène et choeur- »Seule au milieu de nous« (Zurga,Leïla,Choeur).wav
Pre-gap length 0:00:04.40
Peak level 35.8 %
Extraction speed 2.7 X
Track quality 100.0 %
Test CRC C67CBC30
Copy CRC C67CBC30
Copy OK
Track 10
Filename f:\Users\Guillermo\Desktop\EAC convertidos\10 N° 4 - Récit- »A cette voix« (Nadir).wav
Peak level 27.2 %
Extraction speed 2.1 X
Track quality 100.0 %
Test CRC C1E6FDC3
Copy CRC C1E6FDC3
Copy OK
Track 11
Filename f:\Users\Guillermo\Desktop\EAC convertidos\11 N° 4 - Romance- »Je crois encore entendre« (Nadir).wav
Peak level 14.6 %
Extraction speed 2.4 X
Track quality 100.0 %
Test CRC 578F52C3
Copy CRC 578F52C3
Copy OK
Track 12
Filename f:\Users\Guillermo\Desktop\EAC convertidos\12 N° 5 - Scène et choeur- »Le ciel est bleu« (Nadir,Nourabad,Choeur).wav
Peak level 22.0 %
Extraction speed 2.2 X
Track quality 100.0 %
Test CRC DAD0C818
Copy CRC DAD0C818
Copy OK
Track 13
Filename f:\Users\Guillermo\Desktop\EAC convertidos\13 N° 5 - Air et choeur- »Ô Dieu Brahma!« (Leïla,Nadir,Choeur).wav
Peak level 33.9 %
Extraction speed 2.9 X
Track quality 100.0 %
Test CRC 8FCA77B0
Copy CRC 8FCA77B0
Copy OK
Track 14
Filename f:\Users\Guillermo\Desktop\EAC convertidos\14 ACTE 2. N° 6 - Entr'acte, scène et choeur- »L'ombre descend des cieux« (Leïla,Nourabad,Choeur).wav
Pre-gap length 0:00:07.86
Peak level 69.6 %
Extraction speed 3.2 X
Track quality 100.0 %
Test CRC B369A2DD
Copy CRC B369A2DD
Copy OK
No errors occurred
End of status report
==== Log checksum 9724EF1DC2B2A9D19278F775C45E573600903AAB8C4228429B35AA67D00757F0 ====

Лог создания рипа CD 2

Exact Audio Copy V1.0 beta 3 from 29. August 2011
EAC extraction logfile from 1. August 2015, 14:04
Bizet, Georges / Les Pecheurs de Perles (Angelici, Legay, Dens, Nogera, Cluytens) CD2
Used drive : HL-DT-STDVDRAM GH24NSC0 Adapter: 3 ID: 0
Read mode : Secure
Utilize accurate stream : Yes
Defeat audio cache : Yes
Make use of C2 pointers : No
Read offset correction : 6
Overread into Lead-In and Lead-Out : No
Fill up missing offset samples with silence : Yes
Delete leading and trailing silent blocks : No
Null samples used in CRC calculations : Yes
Used interface : Native Win32 interface for Win NT & 2000
Gap handling : Appended to previous track
Used output format : User Defined Encoder
Selected bitrate : 768 kBit/s
Quality : High
Add ID3 tag : No
Command line compressor : C:\Program Files (x86)\Exact Audio Copy\FLAC\FLAC.EXE
Additional command line options : -8 -V -T "ARTIST=%artist%" -T "TITLE=%title%" -T "ALBUM=%albumtitle%" -T "DATE=%year%" -T "TRACKNUMBER=%tracknr%" -T "GENRE=%genre%" -T "PERFORMER=%albuminterpret%" -T "COMPOSER=%composer%" %haslyrics%--tag-from-file=LYRICS="%lyricsfile%"%haslyrics% -T "ALBUMARTIST=%albumartist%" -T "DISCNUMBER=%cdnumber%" -T "TOTALDISCS=%totalcds%" -T "TOTALTRACKS=%numtracks%" -T "COMMENT=%comment%" %source% -o %dest%
TOC of the extracted CD
Track | Start | Length | Start sector | End sector
---------------------------------------------------------
1 | 0:00.33 | 6:28.65 | 33 | 29197
2 | 6:29.23 | 1:44.30 | 29198 | 37027
3 | 8:13.53 | 6:47.40 | 37028 | 67592
4 | 15:01.18 | 9:48.27 | 67593 | 111719
5 | 24:49.45 | 5:57.05 | 111720 | 138499
6 | 30:46.50 | 1:10.18 | 138500 | 143767
7 | 31:56.68 | 7:27.00 | 143768 | 177292
8 | 39:23.68 | 1:58.65 | 177293 | 186207
9 | 41:22.58 | 2:07.65 | 186208 | 195797
10 | 43:30.48 | 5:44.62 | 195798 | 221659
11 | 49:15.35 | 1:17.08 | 221660 | 227442
12 | 50:32.43 | 2:32.27 | 227443 | 238869
Track 1
Filename f:\Users\Guillermo\Desktop\EAC convertidos\01 ACTE 2 (cont'd). N° 7 - Récit et cavatine- »Me voilà seule dans la nuit« (Leïla).wav
Pre-gap length 0:00:02.44
Peak level 38.6 %
Extraction speed 1.6 X
Track quality 100.0 %
Test CRC 044FF466
Copy CRC 044FF466
Copy OK
Track 2
Filename f:\Users\Guillermo\Desktop\EAC convertidos\02 N° 8 - Chanson- »De mon amie« (Nadir,Leïla).wav
Peak level 33.6 %
Extraction speed 1.3 X
Track quality 100.0 %
Test CRC A4A342E6
Copy CRC A4A342E6
Copy OK
Track 3
Filename f:\Users\Guillermo\Desktop\EAC convertidos\03 N° 9 - Duo- »Leïla! Dieu puissant« (Nadir,Leïla).wav
Peak level 54.0 %
Extraction speed 2.0 X
Track quality 100.0 %
Test CRC 0380338E
Copy CRC 0380338E
Copy OK
Track 4
Filename f:\Users\Guillermo\Desktop\EAC convertidos\04 N° 10 - Finale- »Ah! revenez à la raison« (Leïla,Nadir,Nourabad,Choeur).wav
Pre-gap length 0:00:05.04
Peak level 59.0 %
Extraction speed 2.4 X
Track quality 100.0 %
Test CRC CA7B4730
Copy CRC CA7B4730
Copy OK
Track 5
Filename f:\Users\Guillermo\Desktop\EAC convertidos\05 ACTE 3, Premier tableau. N° 11 - Entr'acte, récit et air- »L'orage s'est calmé... Ô Nadir« (Zurga).wav
Pre-gap length 0:00:06.86
Peak level 56.2 %
Extraction speed 2.5 X
Track quality 100.0 %
Test CRC 85A6773B
Copy CRC 85A6773B
Copy OK
Track 6
Filename f:\Users\Guillermo\Desktop\EAC convertidos\06 N° 12 - Récit- »Qu'ai-je vu« (Zurga,Leïla).wav
Peak level 53.3 %
Extraction speed 1.7 X
Track quality 100.0 %
Test CRC 587EF34E
Copy CRC 587EF34E
Copy OK
Track 7
Filename f:\Users\Guillermo\Desktop\EAC convertidos\07 N° 12 - Duo- »Je frémis, je chancelle« (Leïla,Zurga).wav
Peak level 53.1 %
Extraction speed 2.8 X
Track quality 100.0 %
Test CRC 90CB9628
Copy CRC 90CB9628
Copy OK
Track 8
Filename f:\Users\Guillermo\Desktop\EAC convertidos\08 N° 12 - Scène- »Entends au loin« (Nourabad,Leïla,Zurga).wav
Peak level 56.7 %
Extraction speed 1.7 X
Track quality 99.8 %
Test CRC 41A7D847
Copy CRC 41A7D847
Copy OK
Track 9
Filename f:\Users\Guillermo\Desktop\EAC convertidos\09 Deuxième tableau. N° 13 - Choeur dansé- »Dès que le soleil«.wav
Pre-gap length 0:00:07.37
Peak level 55.8 %
Extraction speed 2.3 X
Track quality 100.0 %
Test CRC 7CE4EAF7
Copy CRC 7CE4EAF7
Copy OK
Track 10
Filename f:\Users\Guillermo\Desktop\EAC convertidos\10 N° 14 - Scène et choeur- »Sombres divinités« (Nourabad,Choeur,Zurga).wav
Peak level 58.8 %
Extraction speed 3.0 X
Track quality 100.0 %
Test CRC 00FFFE0F
Copy CRC 00FFFE0F
Copy OK
Track 11
Filename f:\Users\Guillermo\Desktop\EAC convertidos\11 N° 15 - Trio- »Ô lumière sainte« (Leïla,Nadir,Zurga).wav
Peak level 56.4 %
Extraction speed 1.4 X
Track quality 99.7 %
Test CRC CAA08D59
Copy CRC CAA08D59
Copy OK
Track 12
Filename f:\Users\Guillermo\Desktop\EAC convertidos\12 N° 16 - Finale- »Ce sont eux, les voici« (Zurga,Nadir,Leïla,Nourabad,Choeur).wav
Peak level 55.9 %
Extraction speed 2.1 X
Track quality 99.8 %
Test CRC BE86B806
Copy CRC BE86B806
Copy OK
No errors occurred
End of status report
==== Log checksum 49DDDA094CD5D1665A05BC1A83E2591DEFCB3DBFBDE261659BF419EC239C1F41 ====

Содержание индексной карты (.CUE)Содержание индексной карты (.CUE) CD 1

REM GENRE Opera
REM DATE 1954
REM DISCID BB0C8F0E
REM COMMENT "ExactAudioCopy v1.0b3"
FILE "01 Prйlude.wav" WAVE
TRACK 01 AUDIO
PREGAP 00:00:32
INDEX 01 00:00:00
FILE "02 ACTE 1. N° 1 - Choeur- »Sur la grиve en feu«.wav" WAVE
TRACK 02 AUDIO
INDEX 01 00:00:00
FILE "03 N° 1 - Scиne et choeur- »Amis, interrompez vos danses« (Zurga,Nadir,Choeur).wav" WAVE
TRACK 03 AUDIO
INDEX 01 00:00:00
FILE "04 N° 1 - Rйcit et reprise du choeur dansй- »Demeure parmi nous, Nadir« (Zurga,Nadir,Choeur).wav" WAVE
TRACK 04 AUDIO
INDEX 01 00:00:00
FILE "05 N° 2 - Rйcit- »C'est toi! toi qu'enfin je revois« (Zurga,Nadir).wav" WAVE
TRACK 05 AUDIO
INDEX 01 00:00:00
FILE "06 N° 2 - Duo- »Au fond du temple saint« (Zurga,Nadir).wav" WAVE
TRACK 06 AUDIO
INDEX 01 00:00:00
FILE "07 N° 3 - Rйcit- »Que vois-je« (Zurga,Nadir).wav" WAVE
TRACK 07 AUDIO
INDEX 01 00:00:00
FILE "08 N° 3 - Choeur- »Elle vient... Sois la bienvenue«.wav" WAVE
TRACK 08 AUDIO
INDEX 01 00:00:00
TRACK 09 AUDIO
INDEX 00 03:09:35
FILE "09 N° 3 - Scиne et choeur- »Seule au milieu de nous« (Zurga,Leпla,Choeur).wav" WAVE
INDEX 01 00:00:00
FILE "10 N° 4 - Rйcit- »A cette voix« (Nadir).wav" WAVE
TRACK 10 AUDIO
INDEX 01 00:00:00
FILE "11 N° 4 - Romance- »Je crois encore entendre« (Nadir).wav" WAVE
TRACK 11 AUDIO
INDEX 01 00:00:00
FILE "12 N° 5 - Scиne et choeur- »Le ciel est bleu« (Nadir,Nourabad,Choeur).wav" WAVE
TRACK 12 AUDIO
INDEX 01 00:00:00
FILE "13 N° 5 - Air et choeur- »Ф Dieu Brahma!« (Leпla,Nadir,Choeur).wav" WAVE
TRACK 13 AUDIO
INDEX 01 00:00:00
TRACK 14 AUDIO
INDEX 00 05:03:30
FILE "14 ACTE 2. N° 6 - Entr'acte, scиne et choeur- »L'ombre descend des cieux« (Leпla,Nourabad,Choeur).wav" WAVE
INDEX 01 00:00:00

Содержание индексной карты (.CUE) CD 2

REM GENRE Opera
REM DATE 1954
REM DISCID B20C700C
REM COMMENT "ExactAudioCopy v1.0b3"
FILE "01 ACTE 2 (cont'd). N° 7 - Rйcit et cavatine- »Me voilа seule dans la nuit« (Leпla).wav" WAVE
TRACK 01 AUDIO
PREGAP 00:00:33
INDEX 01 00:00:00
FILE "02 N° 8 - Chanson- »De mon amie« (Nadir,Leпla).wav" WAVE
TRACK 02 AUDIO
INDEX 01 00:00:00
FILE "03 N° 9 - Duo- »Leпla! Dieu puissant« (Nadir,Leпla).wav" WAVE
TRACK 03 AUDIO
INDEX 01 00:00:00
TRACK 04 AUDIO
INDEX 00 06:42:37
FILE "04 N° 10 - Finale- »Ah! revenez а la raison« (Leпla,Nadir,Nourabad,Choeur).wav" WAVE
INDEX 01 00:00:00
TRACK 05 AUDIO
INDEX 00 09:41:37
FILE "05 ACTE 3, Premier tableau. N° 11 - Entr'acte, rйcit et air- »L'orage s'est calmй... Ф Nadir« (Zurga).wav" WAVE
INDEX 01 00:00:00
FILE "06 N° 12 - Rйcit- »Qu'ai-je vu« (Zurga,Leпla).wav" WAVE
TRACK 06 AUDIO
INDEX 01 00:00:00
FILE "07 N° 12 - Duo- »Je frйmis, je chancelle« (Leпla,Zurga).wav" WAVE
TRACK 07 AUDIO
INDEX 01 00:00:00
FILE "08 N° 12 - Scиne- »Entends au loin« (Nourabad,Leпla,Zurga).wav" WAVE
TRACK 08 AUDIO
INDEX 01 00:00:00
TRACK 09 AUDIO
INDEX 00 01:51:37
FILE "09 Deuxiиme tableau. N° 13 - Choeur dansй- »Dиs que le soleil«.wav" WAVE
INDEX 01 00:00:00
FILE "10 N° 14 - Scиne et choeur- »Sombres divinitйs« (Nourabad,Choeur,Zurga).wav" WAVE
TRACK 10 AUDIO
INDEX 01 00:00:00
FILE "11 N° 15 - Trio- »Ф lumiиre sainte« (Leпla,Nadir,Zurga).wav" WAVE
TRACK 11 AUDIO
INDEX 01 00:00:00
FILE "12 N° 16 - Finale- »Ce sont eux, les voici« (Zurga,Nadir,Leпla,Nourabad,Choeur).wav" WAVE
TRACK 12 AUDIO
INDEX 01 00:00:00

Треклист

Disc 1:
1. Prélude
Act I:
2 Choeur : Sur La Grève En Feu
3 Scène Et Choeur : Amis, Interrompez Vos Danses (Zurga, Nadir, Choeur)
4 Récit Et Reprise De Choeur Dansé : Demeure Parmi Nous, Nadir (Zurga, Nadir, Choeur)
5 Une Plage De L'île De Ceylan - N°2 - Récit : C'est Toi ! Toi Qu'enfin Je Revois (Zurga, Nadir)
6 Duo : Au Fond Du Temple Saint (Zurga, Nadir)
7 Récit : Que Vois-Je ? (Zurga, Nadir)
8 Choeur : Elle Vient. Sois La Bienvenue
9 Scène Et Choeur : Seule Au Milieu De Nous (Zurga, Leïla, Nadir, Nourabad, Choeur)
10 Récit : A Cette Voix (Nadir)
11 Romance : Je Crois Encore Entendre (Nadir)
12 Scène Et Choeur : Le Ciel Est Bleu (Nadir, Nourabad, Choeur)
13 Air Et Choeur : O Dieu Brahma ! (Leïla, Nadir, Choeur)
Act II:
14 Entr'acte, Scène Et Choeur : L'ombre Descend Des Cieux (Leïla, Nourabad, Choeur)
Disc 2:
1 Récit Et Cavatine : Me Voilà Seule Dans La Nuit (Leïla)
2 Chanson : De Mon Amie (Nadir, Leïla)
3 Duo : Leïla ! Dieu Puissant (Nadir, Leïla)
4 Finale : Ah ! Revenez À La Raison (Leïla, Nadir, Nourabad, Zurga, Choeur)
Act III:
5 Entr'acte, Récit Et Air : L'orage S'est Calmé. O Nadir (Zurga)
6 Récit : Qu'ai-Je Vu ? (Zurga, Leïla)
7 Duo : Je Frémis, Je Chancelle (Leïla, Zurga)
8 Scène : Entends Au Loin (Nourabad, Leïla, Zurga)
9 Choeur Dansé : Dès Que Le Soleil
10 Scène Et Choeur : Sombres Divinités (Nourabad, Choeur, Zurga, Nadir, Leïla)
11 Trio : O Lumière Sainte (Leïla, Nadir, Zurga)
12 Final: Ce sont Eux (Nourabad, Choeur, Zurga, Nadir, Leïla)



Показать сообщения:    

Текущее время: 10-Дек 06:09

Часовой пояс: UTC + 3


Вы не можете начинать темы
Вы не можете отвечать на сообщения
Вы не можете редактировать свои сообщения
Вы не можете удалять свои сообщения
Вы не можете голосовать в опросах
Вы не можете прикреплять файлы к сообщениям
Вы не можете скачивать файлы