(Opera) Giuseppe Verdi - Macbeth / Верди - Макбет [Premiere recording of Original version (1847)] (Marco Guidarini; Yevgeny Demerdiev, Iano Tamar, Andrea Papi, Andrea La Rosa), 1997 - live at Opera Festival Valle d'Itria - FLAC(tracks+.cue), lossless


 

[Цитировать]

Giuseppe Verdi - Macbeth / Джузеппе Верди - Макбет (Marco Guidarini; Yevgeny Demerdiev, Iano Tamar, Andrea Papi, Andrea La Rosa)
Жанр: Opera
Страна-производитель диска: Италия
Год издания диска:
Издатель (лейбл): Dynamic
Дата записи: 1997
Аудиокодек: FLAC
Тип рипа: tracks+.cue
Битрейт аудио: lossless
Продолжительность: 134:38
Источник: релизер (Guillermo)
Исполнители:
Macbeth - Yevgeny Demerdiev,
Lady Macbeth - Iano Tamar,
Banco - Andrea Papi,
Macduff - Andrea La Rosa,
Malcolm - Emil Alekperov,
Dama - Sonia (Eun Seon) Lee,
Medico - Han-Gweong Jang.
Marco Guidarini, Conductor
Orchestra Internazionale d'Italia
Bratislava Chamber Chorus
Recorded live on July 25, 1997 - July 27, 1997, at Martina Franca, Palazzo Ducale, Italy, during the Opera Festival Valle d'Itria.

Лог создания рипаЛог создания рипа CD 1

Exact Audio Copy V1.0 beta 3 from 29. August 2011
EAC extraction logfile from 31. July 2015, 9:00
verdi / MacBeth (Guidarini)
Used drive : HL-DT-STDVDRAM GH24NSC0 Adapter: 3 ID: 0
Read mode : Secure
Utilize accurate stream : Yes
Defeat audio cache : Yes
Make use of C2 pointers : No
Read offset correction : 6
Overread into Lead-In and Lead-Out : No
Fill up missing offset samples with silence : Yes
Delete leading and trailing silent blocks : No
Null samples used in CRC calculations : Yes
Used interface : Native Win32 interface for Win NT & 2000
Gap handling : Appended to previous track
Used output format : User Defined Encoder
Selected bitrate : 768 kBit/s
Quality : High
Add ID3 tag : No
Command line compressor : C:\Program Files (x86)\Exact Audio Copy\FLAC\FLAC.EXE
Additional command line options : -8 -V -T "ARTIST=%artist%" -T "TITLE=%title%" -T "ALBUM=%albumtitle%" -T "DATE=%year%" -T "TRACKNUMBER=%tracknr%" -T "GENRE=%genre%" -T "PERFORMER=%albuminterpret%" -T "COMPOSER=%composer%" %haslyrics%--tag-from-file=LYRICS="%lyricsfile%"%haslyrics% -T "ALBUMARTIST=%albumartist%" -T "DISCNUMBER=%cdnumber%" -T "TOTALDISCS=%totalcds%" -T "TOTALTRACKS=%numtracks%" -T "COMMENT=%comment%" %source% -o %dest%
TOC of the extracted CD
Track | Start | Length | Start sector | End sector
---------------------------------------------------------
1 | 0:00.00 | 2:50.35 | 0 | 12784
2 | 2:50.35 | 3:27.25 | 12785 | 28334
3 | 6:17.60 | 4:08.50 | 28335 | 46984
4 | 10:26.35 | 2:40.67 | 46985 | 59051
5 | 13:07.27 | 1:57.60 | 59052 | 67886
6 | 15:05.12 | 4:59.60 | 67887 | 90371
7 | 20:04.72 | 4:42.50 | 90372 | 111571
8 | 24:47.47 | 3:37.38 | 111572 | 127884
9 | 28:25.10 | 11:05.37 | 127885 | 177796
10 | 39:30.47 | 8:26.50 | 177797 | 215796
11 | 47:57.22 | 6:23.38 | 215797 | 244559
12 | 54:20.60 | 3:10.67 | 244560 | 258876
13 | 57:31.52 | 4:32.70 | 258877 | 279346
14 | 62:04.47 | 9:50.73 | 279347 | 323669
15 | 71:55.45 | 4:58.40 | 323670 | 346059
Track 1
Filename f:\Users\Guillermo\Desktop\EAC convertidos\01 Preludio.wav
Pre-gap length 0:00:02.00
Peak level 97.4 %
Extraction speed 1.2 X
Track quality 99.8 %
Test CRC 2755E525
Copy CRC 2755E525
Copy OK
Track 2
Filename f:\Users\Guillermo\Desktop\EAC convertidos\02 Che faceste dite su!.wav
Peak level 76.7 %
Extraction speed 1.7 X
Track quality 100.0 %
Test CRC D17F7417
Copy CRC D17F7417
Copy OK
Track 3
Filename f:\Users\Guillermo\Desktop\EAC convertidos\03 Giorno non vidi mai.wav
Peak level 69.4 %
Extraction speed 1.9 X
Track quality 100.0 %
Test CRC 6C12763E
Copy CRC 6C12763E
Copy OK
Track 4
Filename f:\Users\Guillermo\Desktop\EAC convertidos\04 Due vaticini compiuti or sono.wav
Peak level 60.6 %
Extraction speed 1.5 X
Track quality 99.8 %
Test CRC 66E0FFE4
Copy CRC 66E0FFE4
Copy OK
Track 5
Filename f:\Users\Guillermo\Desktop\EAC convertidos\05 S'allontanarono.wav
Peak level 72.0 %
Extraction speed 1.8 X
Track quality 100.0 %
Test CRC A285EE95
Copy CRC A285EE95
Copy OK
Track 6
Filename f:\Users\Guillermo\Desktop\EAC convertidos\06 Nel dì della vittoria ... Vieni! t'affretta!.wav
Peak level 98.1 %
Extraction speed 2.3 X
Track quality 100.0 %
Test CRC F45D5B35
Copy CRC F45D5B35
Copy OK
Track 7
Filename f:\Users\Guillermo\Desktop\EAC convertidos\07 Al cader della sera ... Or tutto sorgete.wav
Peak level 93.9 %
Extraction speed 2.1 X
Track quality 99.9 %
Test CRC 9B8A25FE
Copy CRC 9B8A25FE
Copy OK
Track 8
Filename f:\Users\Guillermo\Desktop\EAC convertidos\08 Oh donna mia!.wav
Peak level 64.0 %
Extraction speed 2.4 X
Track quality 100.0 %
Test CRC B9945821
Copy CRC B9945821
Copy OK
Track 9
Filename f:\Users\Guillermo\Desktop\EAC convertidos\09 Sappia la sposa mia.wav
Peak level 96.5 %
Extraction speed 3.0 X
Track quality 100.0 %
Test CRC FACCA740
Copy CRC FACCA740
Copy OK
Track 10
Filename f:\Users\Guillermo\Desktop\EAC convertidos\10 Di destarlo per tempo.wav
Peak level 94.2 %
Extraction speed 2.9 X
Track quality 99.9 %
Test CRC 6F61BE49
Copy CRC 6F61BE49
Copy OK
Track 11
Filename f:\Users\Guillermo\Desktop\EAC convertidos\11 Perché mi sfuggi ... Trionfai! Sicure alfine.wav
Pre-gap length 0:00:05.46
Peak level 76.8 %
Extraction speed 3.3 X
Track quality 100.0 %
Test CRC A9D8D2AF
Copy CRC A9D8D2AF
Copy OK
Track 12
Filename f:\Users\Guillermo\Desktop\EAC convertidos\12 Chi v'impose unirvi a noi.wav
Peak level 48.7 %
Extraction speed 2.5 X
Track quality 99.8 %
Test CRC 5F54BD28
Copy CRC 5F54BD28
Copy OK
Track 13
Filename f:\Users\Guillermo\Desktop\EAC convertidos\13 Studia il passo ... Come dal ciel precipita.wav
Peak level 94.1 %
Extraction speed 3.3 X
Track quality 100.0 %
Test CRC ACEF9CF8
Copy CRC ACEF9CF8
Copy OK
Track 14
Filename f:\Users\Guillermo\Desktop\EAC convertidos\14 Salva, o Re! ... Si colmi li calice.wav
Peak level 92.6 %
Extraction speed 3.8 X
Track quality 100.0 %
Test CRC CFE4EA60
Copy CRC CFE4EA60
Copy OK
Track 15
Filename f:\Users\Guillermo\Desktop\EAC convertidos\15 Sangue a me quell'ombra chiede.wav
Peak level 81.3 %
Extraction speed 3.7 X
Track quality 100.0 %
Test CRC E48091DC
Copy CRC E48091DC
Copy OK
No errors occurred
End of status report
==== Log checksum 06A05DFFE0D18282AB20976CF1E7CF468FBE4F41D02884C0F4F5E1D4C1D8036D ====

Лог создания рипа CD 2

Exact Audio Copy V1.0 beta 3 from 29. August 2011
EAC extraction logfile from 31. July 2015, 9:53
Artista desconocido / Título desconocido
Used drive : HL-DT-STDVDRAM GH24NSC0 Adapter: 3 ID: 0
Read mode : Secure
Utilize accurate stream : Yes
Defeat audio cache : Yes
Make use of C2 pointers : No
Read offset correction : 6
Overread into Lead-In and Lead-Out : No
Fill up missing offset samples with silence : Yes
Delete leading and trailing silent blocks : No
Null samples used in CRC calculations : Yes
Used interface : Native Win32 interface for Win NT & 2000
Gap handling : Appended to previous track
Used output format : User Defined Encoder
Selected bitrate : 768 kBit/s
Quality : High
Add ID3 tag : No
Command line compressor : C:\Program Files (x86)\Exact Audio Copy\FLAC\FLAC.EXE
Additional command line options : -8 -V -T "ARTIST=%artist%" -T "TITLE=%title%" -T "ALBUM=%albumtitle%" -T "DATE=%year%" -T "TRACKNUMBER=%tracknr%" -T "GENRE=%genre%" -T "PERFORMER=%albuminterpret%" -T "COMPOSER=%composer%" %haslyrics%--tag-from-file=LYRICS="%lyricsfile%"%haslyrics% -T "ALBUMARTIST=%albumartist%" -T "DISCNUMBER=%cdnumber%" -T "TOTALDISCS=%totalcds%" -T "TOTALTRACKS=%numtracks%" -T "COMMENT=%comment%" %source% -o %dest%
TOC of the extracted CD
Track | Start | Length | Start sector | End sector
---------------------------------------------------------
1 | 0:00.00 | 4:04.45 | 0 | 18344
2 | 4:04.45 | 14:52.37 | 18345 | 85281
3 | 18:57.07 | 3:02.35 | 85282 | 98966
4 | 21:59.42 | 4:45.08 | 98967 | 120349
5 | 26:44.50 | 3:47.05 | 120350 | 137379
6 | 30:31.55 | 3:03.50 | 137380 | 151154
7 | 33:35.30 | 11:15.02 | 151155 | 201781
8 | 44:50.32 | 4:52.18 | 201782 | 223699
9 | 49:42.50 | 3:52.00 | 223700 | 241099
10 | 53:34.50 | 4:22.25 | 241100 | 260774
Track 1
Filename f:\Users\Guillermo\Desktop\EAC convertidos\01 Pista01.wav
Pre-gap length 0:00:02.00
Peak level 62.4 %
Extraction speed 1.5 X
Track quality 100.0 %
Test CRC 2967736D
Copy CRC 2967736D
Copy OK
Track 2
Filename f:\Users\Guillermo\Desktop\EAC convertidos\02 Pista02.wav
Peak level 62.6 %
Extraction speed 2.1 X
Track quality 100.0 %
Test CRC E859947B
Copy CRC E859947B
Copy OK
Track 3
Filename f:\Users\Guillermo\Desktop\EAC convertidos\03 Pista03.wav
Peak level 91.0 %
Extraction speed 2.0 X
Track quality 100.0 %
Test CRC 2024D2B4
Copy CRC 2024D2B4
Copy OK
Track 4
Filename f:\Users\Guillermo\Desktop\EAC convertidos\04 Pista04.wav
Pre-gap length 0:00:02.13
Peak level 44.0 %
Extraction speed 2.3 X
Track quality 100.0 %
Test CRC 6103F9E7
Copy CRC 6103F9E7
Copy OK
Track 5
Filename f:\Users\Guillermo\Desktop\EAC convertidos\05 Pista05.wav
Peak level 48.8 %
Extraction speed 2.3 X
Track quality 100.0 %
Test CRC 87204A48
Copy CRC 87204A48
Copy OK
Track 6
Filename f:\Users\Guillermo\Desktop\EAC convertidos\06 Pista06.wav
Peak level 71.9 %
Extraction speed 2.3 X
Track quality 100.0 %
Test CRC AE23252A
Copy CRC AE23252A
Copy OK
Track 7
Filename f:\Users\Guillermo\Desktop\EAC convertidos\07 Pista07.wav
Pre-gap length 0:00:04.00
Peak level 61.4 %
Extraction speed 3.0 X
Track quality 100.0 %
Test CRC 81F1DB70
Copy CRC 81F1DB70
Copy OK
Track 8
Filename f:\Users\Guillermo\Desktop\EAC convertidos\08 Pista08.wav
Peak level 53.3 %
Extraction speed 2.5 X
Track quality 99.9 %
Test CRC 82D0BD5A
Copy CRC 82D0BD5A
Copy OK
Track 9
Filename f:\Users\Guillermo\Desktop\EAC convertidos\09 Pista09.wav
Peak level 83.6 %
Extraction speed 2.4 X
Track quality 99.9 %
Test CRC 100413C4
Copy CRC 100413C4
Copy OK
Track 10
Filename f:\Users\Guillermo\Desktop\EAC convertidos\10 Pista10.wav
Peak level 100.0 %
Extraction speed 3.0 X
Track quality 100.0 %
Test CRC EC331CE1
Copy CRC EC331CE1
Copy OK
No errors occurred
End of status report
==== Log checksum 49458BC0E9BE1904F316B3AE787B4A48337E3715AECB8072484DA7C280CF6FD5 ====

Содержание индексной карты (.CUE)Содержание индексной карты (.CUE) CD 1

REM GENRE Opera
REM DATE 1997
REM DISCID EA12060F
REM COMMENT "ExactAudioCopy v1.0b3"
FILE "01 Preludio.wav" WAVE
TRACK 01 AUDIO
INDEX 01 00:00:00
FILE "02 Che faceste dite su!.wav" WAVE
TRACK 02 AUDIO
INDEX 01 00:00:00
FILE "03 Giorno non vidi mai.wav" WAVE
TRACK 03 AUDIO
INDEX 01 00:00:00
FILE "04 Due vaticini compiuti or sono.wav" WAVE
TRACK 04 AUDIO
INDEX 01 00:00:00
FILE "05 S'allontanarono.wav" WAVE
TRACK 05 AUDIO
INDEX 01 00:00:00
FILE "06 Nel dм della vittoria ... Vieni! t'affretta!.wav" WAVE
TRACK 06 AUDIO
INDEX 01 00:00:00
FILE "07 Al cader della sera ... Or tutto sorgete.wav" WAVE
TRACK 07 AUDIO
INDEX 01 00:00:00
FILE "08 Oh donna mia!.wav" WAVE
TRACK 08 AUDIO
INDEX 01 00:00:00
FILE "09 Sappia la sposa mia.wav" WAVE
TRACK 09 AUDIO
INDEX 01 00:00:00
FILE "10 Di destarlo per tempo.wav" WAVE
TRACK 10 AUDIO
INDEX 01 00:00:00
TRACK 11 AUDIO
INDEX 00 08:21:15
FILE "11 Perchй mi sfuggi ... Trionfai! Sicure alfine.wav" WAVE
INDEX 01 00:00:00
FILE "12 Chi v'impose unirvi a noi.wav" WAVE
TRACK 12 AUDIO
INDEX 01 00:00:00
FILE "13 Studia il passo ... Come dal ciel precipita.wav" WAVE
TRACK 13 AUDIO
INDEX 01 00:00:00
FILE "14 Salva, o Re! ... Si colmi li calice.wav" WAVE
TRACK 14 AUDIO
INDEX 01 00:00:00
FILE "15 Sangue a me quell'ombra chiede.wav" WAVE
TRACK 15 AUDIO
INDEX 01 00:00:00

Содержание индексной карты (.CUE) CD 2

REM DISCID 7F0D950A
REM COMMENT "ExactAudioCopy v1.0b3"
FILE "01 Pista01.wav" WAVE
TRACK 01 AUDIO
INDEX 01 00:00:00
FILE "02 Pista02.wav" WAVE
TRACK 02 AUDIO
INDEX 01 00:00:00
FILE "03 Pista03.wav" WAVE
TRACK 03 AUDIO
INDEX 01 00:00:00
TRACK 04 AUDIO
INDEX 00 03:00:25
FILE "04 Pista04.wav" WAVE
INDEX 01 00:00:00
FILE "05 Pista05.wav" WAVE
TRACK 05 AUDIO
INDEX 01 00:00:00
FILE "06 Pista06.wav" WAVE
TRACK 06 AUDIO
INDEX 01 00:00:00
TRACK 07 AUDIO
INDEX 00 02:59:50
FILE "07 Pista07.wav" WAVE
INDEX 01 00:00:00
FILE "08 Pista08.wav" WAVE
TRACK 08 AUDIO
INDEX 01 00:00:00
FILE "09 Pista09.wav" WAVE
TRACK 09 AUDIO
INDEX 01 00:00:00
FILE "10 Pista10.wav" WAVE
TRACK 10 AUDIO
INDEX 01 00:00:00

Треклист

Disc 1:
Act 1.:
1. Preludio
2. "Coro delle steghe: Che faceste, dite su"
3. "Giorno non vidi mai"
4. "Due vaticini"
5. "S'allontanarono!"
6. "Vieni t'affretta"
7. "Or tutti sorgete"
8. "Oh donna mio"
9. "Mi si affaccia un pugnal!"
10. Finale atto 1
Act 2:
10."Trionfai!"
11. "Chi V'imposse unirvi a noi"
12. "Come dal ciel precipita"
13. "Salve, o Re!"
14. Finale atto 2
Disc 2:
Act 3:
1. "Tre volte miagola"
2. "Che fate or voi"
3. "Vada in fiamme"
Act 4:
4. "Scozia oppressa!"
5. "Ah! la paterna mano"
6. "Dove siam? Che Bosco è quello?"
7. "Una Macchia"
8. "Pietà. rispetto, amore"
9. "Ella è morta!"
10. Finale Atto 4



Показать сообщения:    

Текущее время: 07-Дек 13:33

Часовой пояс: UTC + 3


Вы не можете начинать темы
Вы не можете отвечать на сообщения
Вы не можете редактировать свои сообщения
Вы не можете удалять свои сообщения
Вы не можете голосовать в опросах
Вы не можете прикреплять файлы к сообщениям
Вы не можете скачивать файлы