(Classical) Bach - Cantatas, Vol.28: For Ascension Day, BWV 43, 37, 128, 11 - The Monteverdi Choir, The English Baroque Soloists, John Eliot Gardiner - 2013, FLAC (image+.cue) lossless


Статистика раздачи [Обновить пиров]
Размер:  347 MB   |    Зарегистрирован:  8 месяцев 19 дней   |    Скачан:  2 раза

Полного источника не было: 1 месяц

 
   
 
 
 

[Цитировать]

Bach - Cantatas, Vol.28: For Ascension Day, BWV 43, 37, 128, 11 - The Monteverdi Choir, The English Baroque Soloists, John Eliot Gardiner
Жанр: Classical
Страна-производитель диска: UK
Год издания диска: 2013
Издатель (лейбл): Soli Deo Gloria
Номер по каталогу: SDG 185
Дата записи: 2012
Аудиокодек: FLAC
Тип рипа: image+.cue
Битрейт аудио: lossless
Продолжительность: 77:08
Источник: собственный рип
Наличие сканов в содержимом раздачи: да
Треклист:
Johann Sebastian Bach
Cantatas, Vol.28
For Ascension Day
[1]-[11] Gott fähret auf mit Jauchzen, BWV 43
[12]-[17] Wer da gläubet und getauft wird, BWV 37
[18]-[22] Auf Christi Himmelfahrt allein, BWV 128
[23]-[33] Lobet Gott in seinen Reichen, BWV 11
Recorded live at St Giles’ Cripplegate, London, 10 May 2012
Исполнители:
Lenneke Ruiten soprano
Meg Bragle alto
Andrew Tortise tenor
Dietrich Henschel bass
The Monteverdi Choir
The English Baroque Soloists
John Eliot Gardiner

Лог создания рипа

Exact Audio Copy V1.0 beta 3 from 29. August 2011
EAC extraction logfile from 8. February 2015, 19:42
The Monteverdi Choir, The English Baroque Soloists, John Eliot Gardiner / Bach - Cantatas, Vol.28
Used drive : HL-DT-STDVDRAM GU70N Adapter: 0 ID: 0
Read mode : Secure
Utilize accurate stream : Yes
Defeat audio cache : Yes
Make use of C2 pointers : No
Read offset correction : 48
Overread into Lead-In and Lead-Out : No
Fill up missing offset samples with silence : Yes
Delete leading and trailing silent blocks : No
Null samples used in CRC calculations : Yes
Used interface : Native Win32 interface for Win NT & 2000
Used output format : User Defined Encoder
Selected bitrate : 128 kBit/s
Quality : High
Add ID3 tag : No
Command line compressor : C:\Program Files (x86)\Exact Audio Copy\Flac\flac.exe
Additional command line options : -V -8 -T "Date=%year%" -T "Genre=%genre%" %source%
TOC of the extracted CD
Track | Start | Length | Start sector | End sector
---------------------------------------------------------
1 | 0:00.00 | 3:00.36 | 0 | 13535
2 | 3:00.36 | 0:45.59 | 13536 | 16969
3 | 3:46.20 | 2:10.24 | 16970 | 26743
4 | 5:56.44 | 0:17.60 | 26744 | 28078
5 | 6:14.29 | 1:59.72 | 28079 | 37075
6 | 8:14.26 | 0:34.13 | 37076 | 39638
7 | 8:48.39 | 2:38.69 | 39639 | 51557
8 | 11:27.33 | 0:35.03 | 51558 | 54185
9 | 12:02.36 | 3:08.38 | 54186 | 68323
10 | 15:10.74 | 0:41.29 | 68324 | 71427
11 | 15:52.28 | 2:17.52 | 71428 | 81754
12 | 18:10.05 | 2:23.58 | 81755 | 92537
13 | 20:33.63 | 5:39.33 | 92538 | 117995
14 | 26:13.21 | 2:39.06 | 117996 | 129926
15 | 28:52.27 | 0:52.22 | 129927 | 133848
16 | 29:44.49 | 2:38.29 | 133849 | 145727
17 | 32:23.03 | 1:08.36 | 145728 | 150863
18 | 33:31.39 | 4:12.27 | 150864 | 169790
19 | 37:43.66 | 0:44.64 | 169791 | 173154
20 | 38:28.55 | 3:15.38 | 173155 | 187817
21 | 41:44.18 | 6:35.33 | 187818 | 217475
22 | 48:19.51 | 1:01.28 | 217476 | 222078
23 | 49:21.04 | 4:22.29 | 222079 | 241757
24 | 53:43.33 | 0:27.19 | 241758 | 243801
25 | 54:10.52 | 0:56.37 | 243802 | 248038
26 | 55:07.14 | 7:30.23 | 248039 | 281811
27 | 62:37.37 | 0:27.18 | 281812 | 283854
28 | 63:04.55 | 1:34.06 | 283855 | 290910
29 | 64:38.61 | 0:50.44 | 290911 | 294704
30 | 65:29.30 | 0:28.60 | 294705 | 296864
31 | 65:58.15 | 0:43.25 | 296865 | 300114
32 | 66:41.40 | 6:27.01 | 300115 | 329140
33 | 73:08.41 | 3:56.27 | 329141 | 346867
Range status and errors
Selected range
Filename C:\temp\SDG185 - Bach - Cantatas, Vol.28 - Gardiner\Bach - Cantatas, Vol.28.wav
Peak level 100.0 %
Extraction speed 2.3 X
Range quality 100.0 %
Test CRC 3E6970C1
Copy CRC 3E6970C1
Copy OK
No errors occurred
AccurateRip summary
Track 1 accurately ripped (confidence 33) [804E3C6A] (AR v2)
Track 2 accurately ripped (confidence 33) [A5E8A22D] (AR v2)
Track 3 accurately ripped (confidence 33) [15877CC4] (AR v2)
Track 4 accurately ripped (confidence 33) [36BC511F] (AR v2)
Track 5 accurately ripped (confidence 33) [610C91B8] (AR v2)
Track 6 accurately ripped (confidence 33) [C9584F4A] (AR v2)
Track 7 accurately ripped (confidence 33) [C1FBB8C8] (AR v2)
Track 8 accurately ripped (confidence 33) [A2052D69] (AR v2)
Track 9 accurately ripped (confidence 33) [068C4716] (AR v2)
Track 10 accurately ripped (confidence 33) [31A288C1] (AR v2)
Track 11 accurately ripped (confidence 33) [97A8E69D] (AR v2)
Track 12 accurately ripped (confidence 33) [E876C3BA] (AR v2)
Track 13 accurately ripped (confidence 33) [BFDD7C79] (AR v2)
Track 14 accurately ripped (confidence 33) [57180F70] (AR v2)
Track 15 accurately ripped (confidence 33) [B73BD3FF] (AR v2)
Track 16 accurately ripped (confidence 33) [C8D54E54] (AR v2)
Track 17 accurately ripped (confidence 33) [1057B112] (AR v2)
Track 18 accurately ripped (confidence 33) [385D76B0] (AR v2)
Track 19 accurately ripped (confidence 33) [A0925FDB] (AR v2)
Track 20 accurately ripped (confidence 33) [7559DD5A] (AR v2)
Track 21 accurately ripped (confidence 33) [A492EC3F] (AR v2)
Track 22 accurately ripped (confidence 33) [DEC62720] (AR v2)
Track 23 accurately ripped (confidence 33) [523255DE] (AR v2)
Track 24 accurately ripped (confidence 33) [F1230641] (AR v2)
Track 25 accurately ripped (confidence 33) [1DA66135] (AR v2)
Track 26 accurately ripped (confidence 33) [9BF22AAD] (AR v2)
Track 27 accurately ripped (confidence 33) [8A1EE990] (AR v2)
Track 28 accurately ripped (confidence 33) [292F1450] (AR v2)
Track 29 accurately ripped (confidence 33) [C62136E1] (AR v2)
Track 30 accurately ripped (confidence 33) [16BC71C2] (AR v2)
Track 31 accurately ripped (confidence 33) [E4C40D52] (AR v2)
Track 32 accurately ripped (confidence 33) [A13778E8] (AR v2)
Track 33 accurately ripped (confidence 33) [99BDDB99] (AR v2)
All tracks accurately ripped
End of status report
==== Log checksum 132690986AF71C0FC4777B31049FD5782AF14691FB0DBF231EC298D8EECF4EB4 ====
[teatrix.ru].t21916.torrent 
Торрент: Зарегистрирован [ 2016-03-20 12:49 ] · 23512457521D2003E4B983DB2F8ECF795D9EA24F

Скачать .torrent

Скачать

28 KB

Статус: проверено
Скачан: 2 раз
Размер: 347 MB
terms.php



Быстрый ответ

Имя:

      
Для отправки сообщений необходимо включить JavaScript
Показать сообщения:    

Текущее время: 09-Дек 10:45

Часовой пояс: UTC + 3


Вы можете начинать темы
Вы можете отвечать на сообщения
Вы не можете редактировать свои сообщения
Вы не можете удалять свои сообщения
Вы не можете голосовать в опросах
Вы не можете прикреплять файлы к сообщениям
Вы можете скачивать файлы