[TR24][SM][OF] Precipitando - Alban Berg · Leos Janacek · Franz Liszt - Denes Varjon - 2012 [ECM New Series] (Classical)


Статистика раздачи [Обновить пиров]
Размер:  318 MB   |    Зарегистрирован:  8 месяцев 21 день   |    Скачан:  1 раз

Полного источника не было: 4 дня

 
   
 
 
 

[Цитировать]

Precipitando - Alban Berg · Leos Janacek · Franz Liszt / Denes Varjon
Формат записи/Источник записи: [TR24][SM][OF]
Наличие водяных знаков: Нет
Издание: ECM New Series 2247
Год издания/переиздания диска: 2012
Жанр: Keyboard
Издатель(лейбл): © ECM Records GmbH
Продолжительность: 00:57:58
Наличие сканов в содержимом раздачи: Да
Контейнер: FLAC (*.flac)
Тип рипа: tracks
Разрядность: 24/44,1
Формат: WAV (flac.ape.wv)
Количество каналов: 2.0
http://www.qobuz.com/gb-en/album/precipitando-alban-berg-leos-janacek-franz-liszt...on/0028947649076

Треклист

Alban Berg (1885-1935)
01 Sonata Op. 1 (1907/1908, rev. 1920) 11:03
Leoš Janáček (1854-1928)
V mlhách (In the mists) (1912)
02 I Andante 03:28
03 II Molto Adagio 05:08
04 III Andantino 02:56
05 IV Presto 04:13
Franz Liszt (1811–1886)
06 Sonata in B minor (1852/1853) 31:10

Состав

Dénes Várjon: piano

Dynamic Range Meter

foobar2000 1.2.6 / Dynamic Range Meter 1.1.1
log date: 2015-08-04 23:07:14
--------------------------------------------------------------------------------
Analyzed: Dénes Várjon / Precipitando: Alban Berg, Leoš Janáček, Franz Liszt
--------------------------------------------------------------------------------
DR Peak RMS Duration Track
--------------------------------------------------------------------------------
DR14 -0.61 dB -20.55 dB 11:03 01-Sonata op. 1
DR13 -1.63 dB -22.33 dB 3:28 02-V mlhach (In the mists) (1912): I Andante
DR14 -3.08 dB -24.43 dB 5:08 03-V mlhach (In the mists) (1912): II Molto adagio
DR11 -2.19 dB -20.59 dB 2:57 04-V mlhach (In the mists) (1912): III Andantino
DR14 -1.10 dB -19.37 dB 4:14 05-V mlhach (In the mists) (1912): IV Presto
DR14 0.00 dB -20.09 dB 31:10 06-Sonata in B minor (1853)
--------------------------------------------------------------------------------
Number of tracks: 6
Official DR value: DR13
Samplerate: 44100 Hz
Channels: 2
Bits per sample: 24
Bitrate: 1068 kbps
Codec: FLAC
================================================================================
[teatrix.ru].t21917.torrent 
Торрент: Зарегистрирован [ 2016-03-20 12:49 ] · 84902A2F5F9D37440E505CA34AE8677FA943F58F

Скачать .torrent

Скачать

14 KB

Статус: проверено
Скачан: 1 раз
Размер: 318 MB
terms.php



Быстрый ответ

Имя:

      
Для отправки сообщений необходимо включить JavaScript
Показать сообщения:    

Текущее время: 10-Дек 19:38

Часовой пояс: UTC + 3


Вы можете начинать темы
Вы можете отвечать на сообщения
Вы не можете редактировать свои сообщения
Вы не можете удалять свои сообщения
Вы не можете голосовать в опросах
Вы не можете прикреплять файлы к сообщениям
Вы можете скачивать файлы