(Medieval, Andalusi) Alfonso X el Sabio: Merlin y otras cantigas celtas (Musica Antigua, dir. Eduardo Paniagua) - 2006, WavPack (image+.cue) lossless


 

[Цитировать]

Merlín y otras cantigas celtas
Alfonso X el Sabio 1221-1284
Eduardo Paniagua • Jaime Muñoz
Жанр: Medieval, Andalusí
Страна-производитель диска: Spain
Год издания диска: 2006
Издатель (лейбл): Pneuma
Номер по каталогу: PN-820
Дата записи: 2006
Аудиокодек: WavPack
Тип рипа: image+.cue
Битрейт аудио: lossless
Продолжительность: 54:45
Источник: собственный рип
Наличие сканов в содержимом раздачи: да

Треклист

1. CSM-386: El rey pescador Fisher King (Instrumental) [4:43]
2. CSM-108: La cantiga de Merlín Merlin's Cantiga [8:58]
3. CSM-23: El vino de Bretaña The wine from Britany [5:14]
4. CSM-101: La pajariña Little Bird (Instrumental) [3:48]
5. CSM-36: La nave de Bretaña The Ship from Brittany [5:22]
6. CSM-85: El judío de Inglaterra The Jew of England (Instrumental) [4:46]
7. CSM-86: La mujer preñada en Mont Saint-Michel The Pregnant Woman on Mont Saint-Michel [8:23]
8. CSM-226: Monasterio de Gran Bretaña The Monastery of Great Britain [7:04]
9. CSM-285/207: Monja y caballero / La venganza The Nun and the Knight / The Vengeance (Instrumental) [6:26]
CSM = Cantiga de Santa María (Numeradas por W. Mettmann)

Исполнители

Eduardo Paniagua
dirigiendo a MÚSICA ANTIGUA
Jaime Muñoz: wistles, bansuri, ajabeba (woden flute), chalumeau bretón, gaita en sol (bagpipe), gayda, chirimía (windcap reed), coro y zapateado
Josep María Ribelles: arpa (harp)
Ana Alcaide: viola de teclas (nyckelharpa)
David Mayoral: cántara, daff, darbuka, bombo, zarb, tamburello y pandereta
Eduardo Paniagua: coro, flauta tenor, campanil, daff, pandero, gong y cascabeles
Cesar Carazo: canto (voice) 2 y 5
Isabel Urzaiz: canto (voice) 3, 5, 7 y 9
Con la colaboración de:
Carlos Beceiro (LA MUSGAÑA): zanfona y saz 2, 3 y 5
Xurxo Nuñez: bodhram y tambor medieval (medieval tambor) 1 y 5

log EAC

Exact Audio Copy V0.99 prebeta 4 from 23. January 2008
Отчёт EAC об извлечении, выполненном 8. августа 2009, 19:20
Eduardo Paniagua y Jaime Munoz / Merlin y otras cantigas celtas
Дисковод: PIONEER DVD-RW DVR-112D Adapter: 0 ID: 1
Режим чтения : Достоверность
Использование точного потока : Да
Отключение кэша аудио : Да
Использование указателей C2 : Нет
Коррекция смещения при чтении : 48
Способность читать области Lead-in и Lead-out : Нет
Заполнение пропущенных сэмплов тишиной : Да
Удаление блоков с тишиной в начале и конце : Нет
При вычислениях CRC использовались нулевые сэмплы : Да
Интерфейс : Встроенный Win32-интерфейс для Win NT/2000
Выходной формат : Внутренние WAV-операции
Формат сэмплов : 44.100 Гц; 16 бит; стерео
TOC извлечённого CD
Трек | Старт | Длительность | Начальный сектор | Конечный сектор
---------------------------------------------------------------------
1 | 0:00.00 | 4:43.15 | 0 | 21239
2 | 4:43.15 | 8:58.36 | 21240 | 61625
3 | 13:41.51 | 5:14.08 | 61626 | 85183
4 | 18:55.59 | 3:48.28 | 85184 | 102311
5 | 22:44.12 | 5:22.34 | 102312 | 126495
6 | 28:06.46 | 4:45.40 | 126496 | 147910
7 | 32:52.11 | 8:23.18 | 147911 | 185653
8 | 41:15.29 | 7:04.10 | 185654 | 217463
9 | 48:19.39 | 6:26.14 | 217464 | 246427
Характеристики диапазона извлечения и сообщения об ошибках
Выбранный диапазон
Имя файла C:\Documents and Settings\Индра\Мои документы\Моя музыка\Eduardo Paniagua y Jaime Munoz - Merlin y otras cantigas celtas.wav
Пиковый уровень 100.0 %
Качество диапазона 100.0 %
CRC теста 802AEF13
CRC копии 802AEF13
Копирование... OK
Ошибок не произошло
AccurateRip: сводка
Трек 1 точное извлечение (доверие 1) [17F2012A]
Трек 2 точное извлечение (доверие 1) [85594086]
Трек 3 точное извлечение (доверие 1) [563680A0]
Трек 4 точное извлечение (доверие 1) [19D41542]
Трек 5 точное извлечение (доверие 1) [AA1928E8]
Трек 6 точное извлечение (доверие 1) [316D9C0E]
Трек 7 точное извлечение (доверие 1) [4EF260C8]
Трек 8 точное извлечение (доверие 1) [3C79826E]
Трек 9 точное извлечение (доверие 1) [1C4F7F59]
Все треки извлечены точно
Конец отчёта

Audiochecker

AUDIOCHECKER v2.0 beta (build 457) - by Dester - opdester@freemail.hu
~~~~~~~~~~~~~~~~~~~~~~~~~~~~~~~~~~
Начато: суббота, 25. 07. 2015. - 18:52.07
Найдено файлов: 1
1 -===- C:\Documents and Settings\Agni\Мои документы\Foobar\Eduardo Paniagua y Jaime Munoz - Merlin y otras cantigas celtas.wav
Заключение: этот трек - CDDA с вероятностью 100%
Завершено: суббота, 25. 07. 2015. - 18:54.03 (Время операции: 0:01.55)

Audiospectre




Показать сообщения:    

Текущее время: 09-Дек 16:30

Часовой пояс: UTC + 3


Вы не можете начинать темы
Вы не можете отвечать на сообщения
Вы не можете редактировать свои сообщения
Вы не можете удалять свои сообщения
Вы не можете голосовать в опросах
Вы не можете прикреплять файлы к сообщениям
Вы не можете скачивать файлы