(Medieval, Andalusi) Alfonso X el Sabio (1221-1284): Cantigas de Inglaterra (Musica Antigua, dir. Eduardo Paniagua) - 2007, WavPack (image+.cue) lossless


 

[Цитировать]

Cantigas de Inglaterra
Alfonso X el Sabio 1221-1284
Eduardo Paniagua
Жанр: Medieval, Andalusí
Страна-производитель диска: Spain
Год издания диска: 2007
Издатель (лейбл): Pneuma
Номер по каталогу: PN-990
Дата записи: 2007
Аудиокодек: WavPack
Тип рипа: image+.cue
Битрейт аудио: lossless
Продолжительность: 56:40
Источник: собственный рип
Наличие сканов в содержимом раздачи: да

Треклист

1. CSM 47: El monje ebrio. Virgen Santa Maria [5:20]
2. CSM 39: Fuego en Mont Saint Michel. Torto seria grand' e desmesura [9:59]
3. CSM 288: San Dustan. A Madre de Jhesu-Cristo [5:01]
4. CSM 85: El judío de Inglaterra. Pera toller gran perfia [8:45]
5. CSM 135: La historia de Alis y Felix. Aquel podedes jurar [11:45]
6. CSM 82: Diablos como cerdos. A Santa Maria mui bon servir faz (Instrumental) [2:17]
7. CSM 6: El niño cantor. A que do bon rey Davi [7:40]
8. CSM 296: El monje de Conturbel. Quen aa Virgen santa [5:52]
CSM = Cantiga de Santa María (Numeradas por W. Mettmann)

Исполнители

MÚSICA ANTIGUA
Director: Eduardo Paniagua
Cesar Carazo: canto
Isabel Urzaiz: canto
María Luz Álvarez: canto (CSM 47)
Pedro Adarraga, Luis Antonio Muñoz, David Cabrera, Emilio Gómez, Pedro Llarena: coro (CSM 47)
Jaime Muñoz: ajabeba, flauta doble, flautas y gaitas
David Mayoral: darbuga, tambor, panderos, panderetas y daf
Eduardo Paniagua: salterio, dulcimer, flautas dulces, campanil, gong, arpa de boca y semillas y flautas
Josep María Ribelles: arpa
Ana Alcaide: viola de teclas
Carlos Beceiro: zanfona
Wafir Sheik: suisen y laúd
Manuel Pascual: corneta
Luis Delgado: pandero (CSM 288)
Enrique Almendros: gaita charra y tamboril (CSM 288)

log EAC

Exact Audio Copy V0.99 prebeta 4 from 23. January 2008
Отчёт EAC об извлечении, выполненном 8. августа 2009, 20:11
Eduardo Paniagua / Alfonso X el Sabio: Cantigas de Inglaterra
Дисковод: PIONEER DVD-RW DVR-112D Adapter: 0 ID: 1
Режим чтения : Достоверность
Использование точного потока : Да
Отключение кэша аудио : Да
Использование указателей C2 : Нет
Коррекция смещения при чтении : 48
Способность читать области Lead-in и Lead-out : Нет
Заполнение пропущенных сэмплов тишиной : Да
Удаление блоков с тишиной в начале и конце : Нет
При вычислениях CRC использовались нулевые сэмплы : Да
Интерфейс : Встроенный Win32-интерфейс для Win NT/2000
Выходной формат : Внутренние WAV-операции
Формат сэмплов : 44.100 Гц; 16 бит; стерео
TOC извлечённого CD
Трек | Старт | Длительность | Начальный сектор | Конечный сектор
---------------------------------------------------------------------
1 | 0:00.00 | 5:19.46 | 0 | 23970
2 | 5:19.46 | 9:59.19 | 23971 | 68914
3 | 15:18.65 | 5:01.36 | 68915 | 91525
4 | 20:20.26 | 8:44.73 | 91526 | 130898
5 | 29:05.24 | 11:45.33 | 130899 | 183806
6 | 40:50.57 | 2:17.18 | 183807 | 194099
7 | 43:08.00 | 7:40.26 | 194100 | 228625
8 | 50:48.26 | 5:52.08 | 228626 | 255033
Характеристики диапазона извлечения и сообщения об ошибках
Выбранный диапазон
Имя файла C:\Documents and Settings\Индра\Мои документы\Моя музыка\Eduardo Paniagua - Cantigas de Inglaterra.wav
Пиковый уровень 100.0 %
Качество диапазона 100.0 %
CRC теста 5FBB507B
CRC копии 5FBB507B
Копирование... OK
Ошибок не произошло
AccurateRip: сводка
Трек 1 точное извлечение (доверие 1) [DBDE010A]
Трек 2 точное извлечение (доверие 1) [1ECCB4A7]
Трек 3 точное извлечение (доверие 1) [4362F49A]
Трек 4 точное извлечение (доверие 1) [B3DEC7F6]
Трек 5 точное извлечение (доверие 1) [C53F2F7D]
Трек 6 точное извлечение (доверие 1) [A9D33144]
Трек 7 точное извлечение (доверие 1) [F2BC2F35]
Трек 8 точное извлечение (доверие 1) [805349D0]
Все треки извлечены точно
Конец отчёта

Audiochecker

AUDIOCHECKER v2.0 beta (build 457) - by Dester - opdester@freemail.hu
~~~~~~~~~~~~~~~~~~~~~~~~~~~~~~~~~~
Начато: суббота, 25. 07. 2015. - 17:52.38
Найдено файлов: 1
1 -===- C:\Documents and Settings\Agni\Мои документы\Foobar\Eduardo Paniagua - Cantigas de Inglaterra.wav
Заключение: этот трек - CDDA с вероятностью 100%
Завершено: суббота, 25. 07. 2015. - 17:54.32 (Время операции: 0:01.54)

Audiospectre




Показать сообщения:    

Текущее время: 07-Дек 23:20

Часовой пояс: UTC + 3


Вы не можете начинать темы
Вы не можете отвечать на сообщения
Вы не можете редактировать свои сообщения
Вы не можете удалять свои сообщения
Вы не можете голосовать в опросах
Вы не можете прикреплять файлы к сообщениям
Вы не можете скачивать файлы