(Classical) Wolfgang Amadeus Mozart — Complete Viola Quintets (Fine Arts Quartet, Francis Tursi) — 2005, APE (image+.cue) lossless


 

[Цитировать]

Complete Viola Quintets-
Жанр: Classical
Страна-производитель дисков: США
Год издания дисков: 1989
Год записи фонограммы: 1974
Издатель (лейбл): Music & Arts Programs of America, Inc.
Номер по каталогу: CD-1159(2)
CATALOG: 017685115929
Композитор: Wolfgang Amadeus Mozart
Исполнительский коллектив: Fine Arts Quartet, Francis Tursi
Аудио кодек: ape
Тип рипа: image+.cue
Битрейт аудио: lossless
Продолжительность: 02h39'21"
Источник: intoclassics
Наличие сканов в содержимом раздачи: да-

Треклист

CD 1 – 01h19'43"
Viola Quintet B-Dur KV 174
01. I. Allegro moderato [00h06'44"]
02. II. Adagio [00h05'42"]
03. III. Menuetto ma allegretto [00h03'46"]
04. IV. Allegro [00h04'42"]
Viola Quintet D-Dur KV 593
05. I. Larghetto [00h07'35"]
06. II. Adagio [00h07'21"]
07. III. Menuetto [00h05'10"]
08. IV. Allegro [00h04'02"]
Viola Quintet C-Dur KV 515
09. I. Allegro [00h10'25"]
10. II. Menuetto – Allegro [00h06'38"]
11. III. Andante [00h09'49"]
12. IV. Allegro [00h07'50"]-

EAC log

Exact Audio Copy V1.0 beta 1 from 15. November 2010
EAC extraction logfile from 12. October 2013, 20:14
Fine Arts SQ / Mozart - Quintets - Disc 1
Used drive  : ASUS    DRW-1608P   Adapter: 0  ID: 0
Read mode               : Secure
Utilize accurate stream : Yes
Defeat audio cache      : Yes
Make use of C2 pointers : No
Read offset correction                      : 48
Overread into Lead-In and Lead-Out          : No
Fill up missing offset samples with silence : Yes
Delete leading and trailing silent blocks   : No
Null samples used in CRC calculations       : Yes
Used interface                              : Installed external ASPI interface
Used output format : Monkey's Audio Lossless Encoder v3.99 DLL
Sample format      : High Lossless Compression
TOC of the extracted CD
Track |   Start  |  Length  | Start sector | End sector
---------------------------------------------------------
1  |  0:00.00 |  6:44.29 |         0    |    30328
2  |  6:44.29 |  5:41.50 |     30329    |    55953
3  | 12:26.04 |  3:46.25 |     55954    |    72928
4  | 16:12.29 |  4:41.71 |     72929    |    94074
5  | 20:54.25 |  7:34.50 |     94075    |   128174
6  | 28:29.00 |  7:20.55 |    128175    |   161229
7  | 35:49.55 |  5:09.44 |    161230    |   184448
8  | 40:59.24 |  4:02.16 |    184449    |   202614
9  | 45:01.40 | 10:25.14 |    202615    |   249503
10  | 55:26.54 |  6:37.43 |    249504    |   279321
11  | 62:04.22 |  9:48.49 |    279322    |   323470
12  | 71:52.71 |  7:50.31 |    323471    |   358751
Range status and errors
Selected range
Filename D:\Downloads\Fine Arts SQ - Mozart - Quintets - Disc 1.ape
Peak level 83.8 %
Extraction speed 0.8 X
Range quality 100.0 %
Copy CRC 16680440
Copy OK
No errors occurred
AccurateRip summary
Track  1  accurately ripped (confidence 1)  [B081B4E2]
Track  2  accurately ripped (confidence 1)  [3EBDCA96]
Track  3  accurately ripped (confidence 1)  [311C1E1F]
Track  4  accurately ripped (confidence 1)  [37DF02FC]
Track  5  accurately ripped (confidence 1)  [0D3BEF3D]
Track  6  accurately ripped (confidence 1)  [91AD8B77]
Track  7  accurately ripped (confidence 1)  [275DD77A]
Track  8  accurately ripped (confidence 1)  [6968BF42]
Track  9  accurately ripped (confidence 1)  [D731DE02]
Track 10  accurately ripped (confidence 1)  [DCC30489]
Track 11  accurately ripped (confidence 1)  [FFEF8739]
Track 12  accurately ripped (confidence 1)  [9877CCCE]
All tracks accurately ripped
End of status report
-

CUE

REM DISCID 9B12AF0C
REM COMMENT "ExactAudioCopy v1.0b1"
PERFORMER "Fine Arts SQ"
TITLE "Mozart - Quintets - Disc 1"
FILE "Fine Arts SQ - Mozart - Quintets - Disc 1.ape" WAVE
TRACK 01 AUDIO
TITLE "01. K174 - I. Allegro moderato"
PERFORMER "Fine Arts SQ"
INDEX 01 00:00:00
TRACK 02 AUDIO
TITLE "02. ~ II. Adagio"
PERFORMER "Fine Arts SQ"
INDEX 01 06:44:29
TRACK 03 AUDIO
TITLE "03. ~ III. Menuetto ma allegretto"
PERFORMER "Fine Arts SQ"
INDEX 01 12:26:04
TRACK 04 AUDIO
TITLE "04. ~ IV. Allegro"
PERFORMER "Fine Arts SQ"
INDEX 01 16:12:29
TRACK 05 AUDIO
TITLE "05. K593 - I. Larghetto"
PERFORMER "Fine Arts SQ"
INDEX 01 20:54:25
TRACK 06 AUDIO
TITLE "06. ~ Adagio"
PERFORMER "Fine Arts SQ"
INDEX 01 28:29:00
TRACK 07 AUDIO
TITLE "07. ~ Menuetto"
PERFORMER "Fine Arts SQ"
INDEX 01 35:49:55
TRACK 08 AUDIO
TITLE "08. ~ Allegro"
PERFORMER "Fine Arts SQ"
INDEX 01 40:59:24
TRACK 09 AUDIO
TITLE "09. K 515 - I. Allegro"
PERFORMER "Fine Arts SQ"
INDEX 01 45:01:40
TRACK 10 AUDIO
TITLE "10. ~ Menuetto--Allegro"
PERFORMER "Fine Arts SQ"
INDEX 01 55:26:54
TRACK 11 AUDIO
TITLE "11. ~ III. Andante"
PERFORMER "Fine Arts SQ"
INDEX 01 62:04:22
TRACK 12 AUDIO
TITLE "12. ~ IV. Allegro"
PERFORMER "Fine Arts SQ"
INDEX 01 71:52:71
-CD 2 – 01h19'38"
Viola Quintet g-moll KV 516
01. I. Allegro [00h08'26"]
02. II. Menuetto – Allegretto [00h05'16"]
03. III. Adagio ma non troppo [00h08'30"]
04. IV. Adadio – Allegro [00h11'22"]
Viola Quintet c-moll KV 406 (516b)
05. I. Allegro [00h06'28"]
06. II. Andante [00h04'24"]
07. III. Minuetto in canone – Trio in canone al rovescio [00h04'25"]
08. IV. Allegro [00h06'24"]
Viola Quintet Es-Dur KV 614
09. I. Allegro di molto [00h05'38"]
10. II. Andante [00h08'46"]
11. III. Menuetto – Allegretto [00h04'23"]
12. IV. Finale – Allegro [00h05'36"]-

EAC log

Exact Audio Copy V1.0 beta 1 from 15. November 2010
EAC extraction logfile from 12. October 2013, 20:25
Fine Arts SQ / Mozart - String Quintets - Disc 2
Used drive  : ASUS    DRW-1608P   Adapter: 0  ID: 0
Read mode               : Secure
Utilize accurate stream : Yes
Defeat audio cache      : Yes
Make use of C2 pointers : No
Read offset correction                      : 48
Overread into Lead-In and Lead-Out          : No
Fill up missing offset samples with silence : Yes
Delete leading and trailing silent blocks   : No
Null samples used in CRC calculations       : Yes
Used interface                              : Installed external ASPI interface
Used output format : Monkey's Audio Lossless Encoder v3.99 DLL
Sample format      : High Lossless Compression
TOC of the extracted CD
Track |   Start  |  Length  | Start sector | End sector
---------------------------------------------------------
1  |  0:00.00 |  8:26.11 |         0    |    37960
2  |  8:26.11 |  5:15.72 |     37961    |    61657
3  | 13:42.08 |  8:29.66 |     61658    |    99898
4  | 22:11.74 | 11:22.19 |     99899    |   151067
5  | 33:34.18 |  6:27.43 |    151068    |   180135
6  | 40:01.61 |  4:24.26 |    180136    |   199961
7  | 44:26.12 |  4:24.61 |    199962    |   219822
8  | 48:50.73 |  6:23.59 |    219823    |   248606
9  | 55:14.57 |  5:37.58 |    248607    |   273939
10  | 60:52.40 |  8:45.64 |    273940    |   313378
11  | 69:38.29 |  4:23.04 |    313379    |   333107
12  | 74:01.33 |  5:36.26 |    333108    |   358333
Range status and errors
Selected range
Filename D:\Downloads\Fine Arts SQ - Mozart - String Quintets - Disc 2.ape
Peak level 94.7 %
Extraction speed 0.6 X
Range quality 100.0 %
Copy CRC 73E99EDB
Copy OK
No errors occurred
AccurateRip summary
Track  1  accurately ripped (confidence 1)  [A4AC99BC]
Track  2  accurately ripped (confidence 1)  [0F4F0A31]
Track  3  accurately ripped (confidence 1)  [D97E8A6D]
Track  4  accurately ripped (confidence 1)  [C622E2C4]
Track  5  accurately ripped (confidence 1)  [8B790290]
Track  6  accurately ripped (confidence 1)  [CE5ED4CD]
Track  7  accurately ripped (confidence 1)  [50CBF3B3]
Track  8  accurately ripped (confidence 1)  [699704CE]
Track  9  accurately ripped (confidence 1)  [5F585FEE]
Track 10  accurately ripped (confidence 1)  [A7AD0703]
Track 11  accurately ripped (confidence 1)  [39581531]
Track 12  accurately ripped (confidence 1)  [F2152DCD]
All tracks accurately ripped
End of status report
-

CUE

REM DISCID 9A12A90C
REM COMMENT "ExactAudioCopy v1.0b1"
PERFORMER "Fine Arts SQ"
TITLE "Mozart - String Quintets - Disc 2"
FILE "Fine Arts SQ - Mozart - String Quintets - Disc 2.ape" WAVE
TRACK 01 AUDIO
TITLE "01. K516 - I. Allegro"
PERFORMER "Fine Arts SQ"
INDEX 01 00:00:00
TRACK 02 AUDIO
TITLE "02. ~ Menuetto--Allegretto"
PERFORMER "Fine Arts SQ"
INDEX 01 08:26:11
TRACK 03 AUDIO
TITLE "03. ~ Adagio ma non troppo"
PERFORMER "Fine Arts SQ"
INDEX 01 13:42:08
TRACK 04 AUDIO
TITLE "04. ~ Adadio; Allegro"
PERFORMER "Fine Arts SQ"
INDEX 01 22:11:74
TRACK 05 AUDIO
TITLE "05. K406 - I. Allegro"
PERFORMER "Fine Arts SQ"
INDEX 01 33:34:18
TRACK 06 AUDIO
TITLE "06. ~ II. Andante"
PERFORMER "Fine Arts SQ"
INDEX 01 40:01:61
TRACK 07 AUDIO
TITLE "07. ~ III. Minuetto in canone; Trio in canone al rovescio"
PERFORMER "Fine Arts SQ"
INDEX 01 44:26:12
TRACK 08 AUDIO
TITLE "08. ~ IV. Allegro"
PERFORMER "Fine Arts SQ"
INDEX 01 48:50:73
TRACK 09 AUDIO
TITLE "09. K614 - I. Allegro di molto"
PERFORMER "Fine Arts SQ"
INDEX 01 55:14:57
TRACK 10 AUDIO
TITLE "10. ~ II. Andante"
PERFORMER "Fine Arts SQ"
INDEX 01 60:52:40
TRACK 11 AUDIO
TITLE "11. ~ III. Menuetto--Allegretto"
PERFORMER "Fine Arts SQ"
INDEX 01 69:38:29
TRACK 12 AUDIO
TITLE "12. ~ IV. Finale--Allegro"
PERFORMER "Fine Arts SQ"
INDEX 01 74:01:33
-
-



Показать сообщения:    

Текущее время: 08-Дек 12:51

Часовой пояс: UTC + 3


Вы не можете начинать темы
Вы не можете отвечать на сообщения
Вы не можете редактировать свои сообщения
Вы не можете удалять свои сообщения
Вы не можете голосовать в опросах
Вы не можете прикреплять файлы к сообщениям
Вы не можете скачивать файлы