(Baroque Opera) Handel - Faramondo (Fortunato, Baird, Minter, Lane - Brewer Chamber Orchestra, Palmer) - 2003, APE (image+.cue) lossless


 

[Цитировать]

George Frideric Handel - Faramondo
Жанр: Baroque Opera
Страна-производитель диска: EU
Год издания диска: 2003
Издатель (лейбл): Brilliant
Номер по каталогу: 99777-21/23
Дата записи: 1996
Аудиокодек: APE
Тип рипа: image+.cue
Битрейт аудио: lossless
Продолжительность: 63'48+49'29+56'57
Источник: собственный рип
Наличие сканов в содержимом раздачи: да
Треклист:

CD1

1. Act One: Overture
2. Act One: Accompanied Recit: Popolo, Figlio
3. Act One: Chorus: Pere Pere
4. Act One: Recitative: Chiede I'ombra
5. Act One: Aria: Viva, Sì
6. Act One: Recitative: Siam Pur Fuori
7. Act One: Aria: Conoscerò
8. Act One: Recit/Aria: Perdoni...Chi Ben
9. Act One: Recitative: A Me Dunque
10. Act One: Aria: Vanne
11. Act One: Recitative: Faramondo Infelice
12. Act One: Aria: Rival Ti Sono
13. Act One: Recit/Aria: Va... Voglio
14. Act One: Recitative: Sino Ad Ora
15. Act One: Arioso: Sì, Tornerò
16. Act One: Recit/Aria: Quel... Sento
17. Act One: Recitative: Sì, Clotilde
18. Act One: Aria: Vado A Recar
19. Act One: Recitative: Dalla Cittade
20. Act One: Aria: Mi Parto Lieta
21. Act One: Recitative: Fra Quest'ombre
22. Act One: Aria: Se Ben

CD2

1. Act One: Concerto Grosso Op. 6, No. 4 Larghetto
2. Act One: Concerto Grosso Op. 6, No. 4 Allegro
3. Act Two: Sinfonia
4. Act Two: Recitative: Già Udisti
5. Act Two: Aria: Sì, I'intendesti
6. Act Two: Recit/Aria: Sì Sdegna...Non
7. Act Two: Recitative: Misero
8. Act Two: Aria: Poi Che Pria
9. Act Two: Aria: Combattuta
10. Act Two: Recitative: Farmondo In Catene
11. Act Two: Aria: Se A Piedi
12. Act Two: Recitative: Signor, Umil
13. Act Two: Aria: Sol La Brama
14. Act Two: Recitative: Tentai D'aver
15. Act Two: Aria: Nella Terra
16. Act Two: Recitative: Childerico
17. Act Two: Duet: Vado E Vivo

CD3

1. Act Two: Concerto Grosso Op. 6, No. 4 Largo
2. Act Two: Concerto Grosso Op. 6, No. 4 Allegro
3. Act Three: Sinfonia
4. Act Three: Recitative: Mi Tradiscono
5. Act Three: Duet: Caro, Cara
6. Act Three: Recitative: Già Nel Campo
7. Act Three: Aria: Aria: Cosi suole
8. Act Three: Recitative: Ritorna Pu
9. Act Three: Aria: Voglio che sia
10. Act Three: Recitative: D'un oltraggiato
11. Act Three: Aria: Se Ria Procella
12. Act Three: Recitative: Non Isdegnar
13. Act Three: Aria: Sappi, Crudel
14. Act Three: Recitative: Clotilde, Il Tuo Dolor
15. Act Three: Aria Clothilde: Un'aura Placida
16. Act Three: Recitative: Reggi Il Mio Brando
17. Act Three: Aria/Chorus: Virtù Che Rende
Исполнители:
George Frideric Handel - Faramondo
Faramondo – D’Anna Fortunato (mezzo-soprano)
Clotilde – Julianne Baird (soprano)
Gernando – Drew Minter (counter-tenor)
Rosimonda – Jennifer Lane (mezzo-soprano)
Adolfo – Mary Ellen Callahan (soprano)
Gustavo – Peter Castaldi (bass)
Childrico – Lorie Gratis (mezzo-soprano)
Teobaldo – Mark Singer (bass)
Brewer Chamber Orchestra
Rudolph Palmer

Лог создания рипа

CD1

Exact Audio Copy V1.0 beta 6 from 9. April 2015
EAC extraction logfile from 13. July 2015, 14:25
Handel / Faramondo CD1
Used drive : TS8XDVDSTRANSCEND Adapter: 1 ID: 1
Read mode : Secure
Utilize accurate stream : Yes
Defeat audio cache : Yes
Make use of C2 pointers : No
Read offset correction : 6
Overread into Lead-In and Lead-Out : No
Fill up missing offset samples with silence : Yes
Delete leading and trailing silent blocks : No
Null samples used in CRC calculations : Yes
Used interface : Native Win32 interface for Win NT & 2000
Used output format : Monkey's Audio Lossless Encoder
Selected bitrate : High Lossless Compression
Quality : High
Add ID3 tag : Yes
Command line compressor : C:\Program Files (x86)\Exact Audio Copy\MAC\MAC.exe
TOC of the extracted CD
Track | Start | Length | Start sector | End sector
---------------------------------------------------------
1 | 0:00.00 | 6:33.17 | 0 | 29491
2 | 6:33.17 | 1:10.73 | 29492 | 34814
3 | 7:44.15 | 0:21.22 | 34815 | 36411
4 | 8:05.37 | 0:53.53 | 36412 | 40439
5 | 8:59.15 | 3:37.20 | 40440 | 56734
6 | 12:36.35 | 0:54.55 | 56735 | 60839
7 | 13:31.15 | 4:16.70 | 60840 | 80109
8 | 17:48.10 | 6:31.45 | 80110 | 109479
9 | 24:19.55 | 1:31.57 | 109480 | 116361
10 | 25:51.37 | 4:06.28 | 116362 | 134839
11 | 29:57.65 | 0:43.15 | 134840 | 138079
12 | 30:41.05 | 3:59.45 | 138080 | 156049
13 | 34:40.50 | 4:59.67 | 156050 | 178541
14 | 39:40.42 | 1:26.73 | 178542 | 185064
15 | 41:07.40 | 2:20.37 | 185065 | 195601
16 | 43:28.02 | 4:19.63 | 195602 | 215089
17 | 47:47.65 | 1:09.67 | 215090 | 220331
18 | 48:57.57 | 2:01.18 | 220332 | 229424
19 | 50:59.00 | 0:19.17 | 229425 | 230866
20 | 51:18.17 | 5:27.23 | 230867 | 255414
21 | 56:45.40 | 1:22.70 | 255415 | 261634
22 | 58:08.35 | 5:43.30 | 261635 | 287389
Range status and errors
Selected range
Filename D:\EAC\Handel - Faramondo CD1.wav
Peak level 93.6 %
Extraction speed 4.5 X
Range quality 100.0 %
Test CRC 99ACE94B
Copy CRC 99ACE94B
Copy OK
No errors occurred
AccurateRip summary
Track 1 accurately ripped (confidence 11) [7F7654CE] (AR v2)
Track 2 accurately ripped (confidence 11) [FE420131] (AR v2)
Track 3 accurately ripped (confidence 11) [6DD15422] (AR v2)
Track 4 accurately ripped (confidence 11) [5040F14B] (AR v2)
Track 5 accurately ripped (confidence 11) [221DC652] (AR v2)
Track 6 accurately ripped (confidence 11) [77D787D5] (AR v2)
Track 7 accurately ripped (confidence 11) [46F0F07D] (AR v2)
Track 8 accurately ripped (confidence 11) [F079080B] (AR v2)
Track 9 accurately ripped (confidence 11) [735224BE] (AR v2)
Track 10 accurately ripped (confidence 11) [A45C4CD4] (AR v2)
Track 11 accurately ripped (confidence 11) [43A9AB1D] (AR v2)
Track 12 accurately ripped (confidence 11) [DFCB2088] (AR v2)
Track 13 accurately ripped (confidence 11) [D61E3386] (AR v2)
Track 14 accurately ripped (confidence 11) [951B7F10] (AR v2)
Track 15 accurately ripped (confidence 11) [96A90BA8] (AR v2)
Track 16 accurately ripped (confidence 11) [052D9ABB] (AR v2)
Track 17 accurately ripped (confidence 11) [F2855C3C] (AR v2)
Track 18 accurately ripped (confidence 11) [BE1C260A] (AR v2)
Track 19 accurately ripped (confidence 11) [7B02A35D] (AR v2)
Track 20 accurately ripped (confidence 11) [4A68B85F] (AR v2)
Track 21 accurately ripped (confidence 11) [6FC83670] (AR v2)
Track 22 accurately ripped (confidence 9) [D934C584] (AR v2)
All tracks accurately ripped
End of status report
---- CUETools DB Plugin V2.1.6
[CTDB TOCID: Y8ZruygzYeAnG._xf.ZrtYwkwcs-] found
Submit result: unrecognized or virtual drive
Track | CTDB Status
1 | (9/9) Accurately ripped
2 | (9/9) Accurately ripped
3 | (9/9) Accurately ripped
4 | (9/9) Accurately ripped
5 | (9/9) Accurately ripped
6 | (9/9) Accurately ripped
7 | (9/9) Accurately ripped
8 | (9/9) Accurately ripped
9 | (9/9) Accurately ripped
10 | (9/9) Accurately ripped
11 | (9/9) Accurately ripped
12 | (9/9) Accurately ripped
13 | (5/9) Accurately ripped, or (4/9) differs in 10675 samples @02:25:74-02:26:09
14 | (9/9) Accurately ripped
15 | (9/9) Accurately ripped
16 | (9/9) Accurately ripped
17 | (9/9) Accurately ripped
18 | (9/9) Accurately ripped
19 | (9/9) Accurately ripped
20 | (9/9) Accurately ripped
21 | (9/9) Accurately ripped
22 | (9/9) Accurately ripped
==== Log checksum 94E63EA956A41DD77ED0FC1C4C8B31B3165662206AF832FB9624551CE7BB4286 ====

CD2

Exact Audio Copy V1.0 beta 6 from 9. April 2015
EAC extraction logfile from 13. July 2015, 14:53
Handel / Faramondo CD2
Used drive : HL-DT-STDVDRAM GH22NS50 Adapter: 1 ID: 0
Read mode : Secure
Utilize accurate stream : Yes
Defeat audio cache : Yes
Make use of C2 pointers : No
Read offset correction : 667
Overread into Lead-In and Lead-Out : No
Fill up missing offset samples with silence : Yes
Delete leading and trailing silent blocks : No
Null samples used in CRC calculations : Yes
Used interface : Native Win32 interface for Win NT & 2000
Used output format : Monkey's Audio Lossless Encoder
Selected bitrate : High Lossless Compression
Quality : High
Add ID3 tag : Yes
Command line compressor : C:\Program Files (x86)\Exact Audio Copy\MAC\MAC.exe
TOC of the extracted CD
Track | Start | Length | Start sector | End sector
---------------------------------------------------------
1 | 0:00.00 | 2:37.67 | 0 | 11841
2 | 2:37.67 | 2:43.10 | 11842 | 24076
3 | 5:21.02 | 2:23.45 | 24077 | 34846
4 | 7:44.47 | 1:43.73 | 34847 | 42644
5 | 9:28.45 | 3:55.15 | 42645 | 60284
6 | 13:23.60 | 4:53.20 | 60285 | 82279
7 | 18:17.05 | 0:37.42 | 82280 | 85096
8 | 18:54.47 | 5:58.68 | 85097 | 112014
9 | 24:53.40 | 6:00.65 | 112015 | 139079
10 | 30:54.30 | 1:05.15 | 139080 | 143969
11 | 31:59.45 | 3:58.17 | 143970 | 161836
12 | 35:57.62 | 1:22.20 | 161837 | 168006
13 | 37:20.07 | 3:17.13 | 168007 | 182794
14 | 40:37.20 | 0:39.25 | 182795 | 185744
15 | 41:16.45 | 4:40.52 | 185745 | 206796
16 | 45:57.22 | 1:03.40 | 206797 | 211561
17 | 47:00.62 | 2:33.05 | 211562 | 223041
Range status and errors
Selected range
Filename D:\EAC\Handel - Faramondo CD2.wav
Peak level 100.0 %
Extraction speed 1.7 X
Range quality 100.0 %
Test CRC 16409AAC
Copy CRC 16409AAC
Copy OK
No errors occurred
AccurateRip summary
Track 1 accurately ripped (confidence 11) [476E0E05] (AR v2)
Track 2 accurately ripped (confidence 11) [E2E55155] (AR v2)
Track 3 accurately ripped (confidence 11) [6C4D5A31] (AR v2)
Track 4 accurately ripped (confidence 11) [CCD56CD0] (AR v2)
Track 5 accurately ripped (confidence 11) [5D09F66D] (AR v2)
Track 6 accurately ripped (confidence 11) [20A17374] (AR v2)
Track 7 accurately ripped (confidence 11) [65ECCF24] (AR v2)
Track 8 accurately ripped (confidence 11) [01BFA626] (AR v2)
Track 9 accurately ripped (confidence 11) [A88FBB2C] (AR v2)
Track 10 accurately ripped (confidence 11) [CD267636] (AR v2)
Track 11 accurately ripped (confidence 11) [858C61A3] (AR v2)
Track 12 accurately ripped (confidence 11) [420117EF] (AR v2)
Track 13 accurately ripped (confidence 11) [05575065] (AR v2)
Track 14 accurately ripped (confidence 11) [5213F7DA] (AR v2)
Track 15 accurately ripped (confidence 11) [E1E442DB] (AR v2)
Track 16 accurately ripped (confidence 11) [4C32BF9D] (AR v2)
Track 17 accurately ripped (confidence 10) [98440EB3] (AR v2)
All tracks accurately ripped
End of status report
---- CUETools DB Plugin V2.1.6
[CTDB TOCID: lo9ed9KiIIS.w1AgEDl2RI0sgn8-] found
Submit result: lo9ed9KiIIS.w1AgEDl2RI0sgn8- has been confirmed
Track | CTDB Status
1 | (9/9) Accurately ripped
2 | (9/9) Accurately ripped
3 | (9/9) Accurately ripped
4 | (9/9) Accurately ripped
5 | (9/9) Accurately ripped
6 | (9/9) Accurately ripped
7 | (9/9) Accurately ripped
8 | (9/9) Accurately ripped
9 | (9/9) Accurately ripped
10 | (9/9) Accurately ripped
11 | (9/9) Accurately ripped
12 | (9/9) Accurately ripped
13 | (9/9) Accurately ripped
14 | (9/9) Accurately ripped
15 | (9/9) Accurately ripped
16 | (9/9) Accurately ripped
17 | (9/9) Accurately ripped
==== Log checksum 31281A2FE2F8AAF5D981CD706BD30E3B62BCA4C8CB647AF10189F287F39FF573 ====

CD3

Exact Audio Copy V1.0 beta 6 from 9. April 2015
EAC extraction logfile from 13. July 2015, 14:23
Handel / Faramondo CD3
Used drive : TSSTcorpCDDVDW SE-208AB Adapter: 1 ID: 2
Read mode : Secure
Utilize accurate stream : Yes
Defeat audio cache : Yes
Make use of C2 pointers : No
Read offset correction : 6
Overread into Lead-In and Lead-Out : No
Fill up missing offset samples with silence : Yes
Delete leading and trailing silent blocks : No
Null samples used in CRC calculations : Yes
Used interface : Native Win32 interface for Win NT & 2000
Used output format : Monkey's Audio Lossless Encoder
Selected bitrate : High Lossless Compression
Quality : High
Add ID3 tag : Yes
Command line compressor : C:\Program Files (x86)\Exact Audio Copy\MAC\MAC.exe
TOC of the extracted CD
Track | Start | Length | Start sector | End sector
---------------------------------------------------------
1 | 0:00.00 | 2:19.70 | 0 | 10494
2 | 2:19.70 | 2:52.47 | 10495 | 23441
3 | 5:12.42 | 2:46.55 | 23442 | 35946
4 | 7:59.22 | 1:13.30 | 35947 | 41451
5 | 9:12.52 | 5:14.05 | 41452 | 65006
6 | 14:26.57 | 0:27.30 | 65007 | 67061
7 | 14:54.12 | 4:29.70 | 67062 | 87306
8 | 19:24.07 | 0:39.28 | 87307 | 90259
9 | 20:03.35 | 7:51.50 | 90260 | 125634
10 | 27:55.10 | 1:38.57 | 125635 | 133041
11 | 29:33.67 | 4:46.55 | 133042 | 154546
12 | 34:20.47 | 2:00.63 | 154547 | 163609
13 | 36:21.35 | 5:40.67 | 163610 | 189176
14 | 42:02.27 | 1:42.38 | 189177 | 196864
15 | 43:44.65 | 6:01.05 | 196865 | 223944
16 | 49:45.70 | 1:53.65 | 223945 | 232484
17 | 51:39.60 | 5:23.32 | 232485 | 256741
Range status and errors
Selected range
Filename D:\EAC\Handel - Faramondo CD3.wav
Peak level 89.8 %
Extraction speed 4.3 X
Range quality 99.9 %
Test CRC 90DC2A5F
Copy CRC 90DC2A5F
Copy OK
No errors occurred
AccurateRip summary
Track 1 accurately ripped (confidence 11) [B7D98C53] (AR v2)
Track 2 accurately ripped (confidence 11) [B54A83DF] (AR v2)
Track 3 accurately ripped (confidence 11) [F47EB297] (AR v2)
Track 4 accurately ripped (confidence 11) [B2F4CDD0] (AR v2)
Track 5 accurately ripped (confidence 11) [73DACB0C] (AR v2)
Track 6 accurately ripped (confidence 11) [4FFE3A1F] (AR v2)
Track 7 accurately ripped (confidence 11) [002635BB] (AR v2)
Track 8 accurately ripped (confidence 11) [0F052B3A] (AR v2)
Track 9 accurately ripped (confidence 11) [014F0CD2] (AR v2)
Track 10 accurately ripped (confidence 11) [B29A0460] (AR v2)
Track 11 accurately ripped (confidence 11) [4BC6B7E0] (AR v2)
Track 12 accurately ripped (confidence 11) [0AE4458D] (AR v2)
Track 13 accurately ripped (confidence 11) [C2DAC407] (AR v2)
Track 14 accurately ripped (confidence 11) [E9334C20] (AR v2)
Track 15 accurately ripped (confidence 11) [DEB384B9] (AR v2)
Track 16 accurately ripped (confidence 11) [2F1CD234] (AR v2)
Track 17 accurately ripped (confidence 10) [838D7133] (AR v2)
All tracks accurately ripped
End of status report
---- CUETools DB Plugin V2.1.6
[CTDB TOCID: A9D15DxTqtr4S0KCWq9fpJDcOCY-] found
Submit result: A9D15DxTqtr4S0KCWq9fpJDcOCY- has been confirmed
Track | CTDB Status
1 | (5/9) Accurately ripped
2 | (5/9) Accurately ripped
3 | (5/9) Accurately ripped
4 | (5/9) Accurately ripped
5 | (5/9) Accurately ripped
6 | (5/9) Accurately ripped
7 | (5/9) Accurately ripped
8 | (5/9) Accurately ripped
9 | (5/9) Accurately ripped
10 | (5/9) Accurately ripped
11 | (5/9) Accurately ripped
12 | (5/9) Accurately ripped
13 | (5/9) Accurately ripped
14 | (5/9) Accurately ripped
15 | (5/9) Accurately ripped
16 | (5/9) Accurately ripped
17 | (5/9) Accurately ripped
==== Log checksum 4AF53A72FE054C08061521AD337F79E1E7E1A11A04C910ABB597115548C3A552 ====

Содержание индексной карты (.CUE)

CD1

REM GENRE Opera
REM DATE 1996
REM DISCID 490EF716
REM COMMENT "ExactAudioCopy v1.0b6"
PERFORMER "Handel"
TITLE "Faramondo CD1"
FILE "Handel - Faramondo CD1.ape" WAVE
TRACK 01 AUDIO
TITLE "Act I. Overture"
PERFORMER "Fortunato, Baird, Minter - Brewer Chamber Orchestra, Palmer"
INDEX 01 00:00:00
TRACK 02 AUDIO
TITLE "Act I. Accompanied Recitative: Popolo, figlio"
PERFORMER "Fortunato, Baird, Minter - Brewer Chamber Orchestra, Palmer"
INDEX 01 06:33:17
TRACK 03 AUDIO
TITLE "Act I. Chorus: Pera, pera"
PERFORMER "Fortunato, Baird, Minter - Brewer Chamber Orchestra, Palmer"
INDEX 01 07:44:15
TRACK 04 AUDIO
TITLE "Act I. Recitative: Chiede l'ombra"
PERFORMER "Fortunato, Baird, Minter - Brewer Chamber Orchestra, Palmer"
INDEX 01 08:05:37
TRACK 05 AUDIO
TITLE "Act I. Aria: Viva, si"
PERFORMER "Fortunato, Baird, Minter - Brewer Chamber Orchestra, Palmer"
INDEX 01 08:59:15
TRACK 06 AUDIO
TITLE "Act I. Recitative: Siam pur fuori"
PERFORMER "Fortunato, Baird, Minter - Brewer Chamber Orchestra, Palmer"
INDEX 01 12:36:35
TRACK 07 AUDIO
TITLE "Act I. Aria: Conoscero"
PERFORMER "Fortunato, Baird, Minter - Brewer Chamber Orchestra, Palmer"
INDEX 01 13:31:15
TRACK 08 AUDIO
TITLE "Act I. Recitative/Aria: Perdoni all'amor mio"
PERFORMER "Fortunato, Baird, Minter - Brewer Chamber Orchestra, Palmer"
INDEX 01 17:48:10
TRACK 09 AUDIO
TITLE "Act I. Recitative: A me dunque"
PERFORMER "Fortunato, Baird, Minter - Brewer Chamber Orchestra, Palmer"
INDEX 01 24:19:55
TRACK 10 AUDIO
TITLE "Act I. Aria: Vanne"
PERFORMER "Fortunato, Baird, Minter - Brewer Chamber Orchestra, Palmer"
INDEX 01 25:51:37
TRACK 11 AUDIO
TITLE "Act I. Recitative: Faramondo infelice"
PERFORMER "Fortunato, Baird, Minter - Brewer Chamber Orchestra, Palmer"
INDEX 01 29:57:65
TRACK 12 AUDIO
TITLE "Act I. Aria: Rival si tono"
PERFORMER "Fortunato, Baird, Minter - Brewer Chamber Orchestra, Palmer"
INDEX 01 30:41:05
TRACK 13 AUDIO
TITLE "Act I. Recitative/Aria: Va pur"
PERFORMER "Fortunato, Baird, Minter - Brewer Chamber Orchestra, Palmer"
INDEX 01 34:40:50
TRACK 14 AUDIO
TITLE "Act I. Recitative: Sino ad ora"
PERFORMER "Fortunato, Baird, Minter - Brewer Chamber Orchestra, Palmer"
INDEX 01 39:40:42
TRACK 15 AUDIO
TITLE "Act I. Arioso: Si, tornero"
PERFORMER "Fortunato, Baird, Minter - Brewer Chamber Orchestra, Palmer"
INDEX 01 41:07:40
TRACK 16 AUDIO
TITLE "Act I. Recitative/Aria: Quel nemico"
PERFORMER "Fortunato, Baird, Minter - Brewer Chamber Orchestra, Palmer"
INDEX 01 43:28:02
TRACK 17 AUDIO
TITLE "Act I. Recitative: Si, Clotilde"
PERFORMER "Fortunato, Baird, Minter - Brewer Chamber Orchestra, Palmer"
INDEX 01 47:47:65
TRACK 18 AUDIO
TITLE "Act I. Aria: Vado a recar"
PERFORMER "Fortunato, Baird, Minter - Brewer Chamber Orchestra, Palmer"
INDEX 01 48:57:57
TRACK 19 AUDIO
TITLE "Act I. Recitative: Dalla cittade"
PERFORMER "Fortunato, Baird, Minter - Brewer Chamber Orchestra, Palmer"
INDEX 01 50:59:00
TRACK 20 AUDIO
TITLE "Act I. Aria: Mi parto lieta"
PERFORMER "Fortunato, Baird, Minter - Brewer Chamber Orchestra, Palmer"
INDEX 01 51:18:17
TRACK 21 AUDIO
TITLE "Act I. Recitative: Fra quest'ombre"
PERFORMER "Fortunato, Baird, Minter - Brewer Chamber Orchestra, Palmer"
INDEX 01 56:45:40
TRACK 22 AUDIO
TITLE "Act I. Aria: Se ben"
PERFORMER "Fortunato, Baird, Minter - Brewer Chamber Orchestra, Palmer"
INDEX 01 58:08:35

CD2

REM GENRE Opera
REM DATE 1996
REM DISCID FB0B9D11
REM COMMENT "ExactAudioCopy v1.0b6"
PERFORMER "Handel"
TITLE "Faramondo CD2"
FILE "Handel - Faramondo CD2.ape" WAVE
TRACK 01 AUDIO
TITLE "Concerto Grosso Op. 6, No. 4 in A Minor: I. Larghetto affetuoso"
PERFORMER "Fortunato, Baird, Minter - Brewer Chamber Orchestra, Palmer"
INDEX 01 00:00:00
TRACK 02 AUDIO
TITLE "Concerto Grosso Op. 6, No. 4 in A Minor: II. Allegro"
PERFORMER "Fortunato, Baird, Minter - Brewer Chamber Orchestra, Palmer"
INDEX 01 02:37:67
TRACK 03 AUDIO
TITLE "Act II. Sinfonia"
PERFORMER "Fortunato, Baird, Minter - Brewer Chamber Orchestra, Palmer"
INDEX 01 05:21:02
TRACK 04 AUDIO
TITLE "Act II. Recitative: Gia udisti"
PERFORMER "Fortunato, Baird, Minter - Brewer Chamber Orchestra, Palmer"
INDEX 01 07:44:47
TRACK 05 AUDIO
TITLE "Act II. Aria: Si, l'intendesti"
PERFORMER "Fortunato, Baird, Minter - Brewer Chamber Orchestra, Palmer"
INDEX 01 09:28:45
TRACK 06 AUDIO
TITLE "Act II. Recitative/Aria: Si sdegna"
PERFORMER "Fortunato, Baird, Minter - Brewer Chamber Orchestra, Palmer"
INDEX 01 13:23:60
TRACK 07 AUDIO
TITLE "Act II. Recitative: Misero"
PERFORMER "Fortunato, Baird, Minter - Brewer Chamber Orchestra, Palmer"
INDEX 01 18:17:05
TRACK 08 AUDIO
TITLE "Act II. Aria: Poi che pria"
PERFORMER "Fortunato, Baird, Minter - Brewer Chamber Orchestra, Palmer"
INDEX 01 18:54:47
TRACK 09 AUDIO
TITLE "Act II. Aria: Combattuta"
PERFORMER "Fortunato, Baird, Minter - Brewer Chamber Orchestra, Palmer"
INDEX 01 24:53:40
TRACK 10 AUDIO
TITLE "Act II. Recitative: Faramondo in catene"
PERFORMER "Fortunato, Baird, Minter - Brewer Chamber Orchestra, Palmer"
INDEX 01 30:54:30
TRACK 11 AUDIO
TITLE "Act II. Aria: Se a piedi"
PERFORMER "Fortunato, Baird, Minter - Brewer Chamber Orchestra, Palmer"
INDEX 01 31:59:45
TRACK 12 AUDIO
TITLE "Act II. Recitative: Signor, umil"
PERFORMER "Fortunato, Baird, Minter - Brewer Chamber Orchestra, Palmer"
INDEX 01 35:57:62
TRACK 13 AUDIO
TITLE "Act II. Aria: Sol la brama"
PERFORMER "Fortunato, Baird, Minter - Brewer Chamber Orchestra, Palmer"
INDEX 01 37:20:07
TRACK 14 AUDIO
TITLE "Act II. Recitative: Tentai d'aver"
PERFORMER "Fortunato, Baird, Minter - Brewer Chamber Orchestra, Palmer"
INDEX 01 40:37:20
TRACK 15 AUDIO
TITLE "Act II. Aria: Nella terra"
PERFORMER "Fortunato, Baird, Minter - Brewer Chamber Orchestra, Palmer"
INDEX 01 41:16:45
TRACK 16 AUDIO
TITLE "Act II. Recitative: Childerico"
PERFORMER "Fortunato, Baird, Minter - Brewer Chamber Orchestra, Palmer"
INDEX 01 45:57:22
TRACK 17 AUDIO
TITLE "Act II. Duet: Vado e vivo"
PERFORMER "Fortunato, Baird, Minter - Brewer Chamber Orchestra, Palmer"
INDEX 01 47:00:62

CD3

REM GENRE Opera
REM DATE 1996
REM DISCID EB0D5F11
REM COMMENT "ExactAudioCopy v1.0b6"
PERFORMER "Handel"
TITLE "Faramondo CD3"
FILE "Handel - Faramondo CD3.ape" WAVE
TRACK 01 AUDIO
TITLE "Concerto Grosso Op. 6, No. 4 in A Minor: III. Largo, e piano"
PERFORMER "Fortunato, Baird, Minter - Brewer Chamber Orchestra, Palmer"
INDEX 01 00:00:00
TRACK 02 AUDIO
TITLE "Concerto Grosso Op. 6, No. 4 in A Minor: IV. Allegro"
PERFORMER "Fortunato, Baird, Minter - Brewer Chamber Orchestra, Palmer"
INDEX 01 02:19:70
TRACK 03 AUDIO
TITLE "Faramondo: Act III. Sinfonia"
PERFORMER "Fortunato, Baird, Minter - Brewer Chamber Orchestra, Palmer"
INDEX 01 05:12:42
TRACK 04 AUDIO
TITLE "Faramondo: Act III. Recitative: Mi tradiscono"
PERFORMER "Fortunato, Baird, Minter - Brewer Chamber Orchestra, Palmer"
INDEX 01 07:59:22
TRACK 05 AUDIO
TITLE "Faramondo: Act III. Duet: Caro, cara"
PERFORMER "Fortunato, Baird, Minter - Brewer Chamber Orchestra, Palmer"
INDEX 01 09:12:52
TRACK 06 AUDIO
TITLE "Faramondo: Act III. Recitative: Gia nel campo"
PERFORMER "Fortunato, Baird, Minter - Brewer Chamber Orchestra, Palmer"
INDEX 00 14:25:55
INDEX 01 14:26:57
TRACK 07 AUDIO
TITLE "Faramondo: Act III. Aria: Cosi suole"
PERFORMER "Fortunato, Baird, Minter - Brewer Chamber Orchestra, Palmer"
INDEX 01 14:54:12
TRACK 08 AUDIO
TITLE "Faramondo: Act III. Recitative: Ritorna pu"
PERFORMER "Fortunato, Baird, Minter - Brewer Chamber Orchestra, Palmer"
INDEX 01 19:24:07
TRACK 09 AUDIO
TITLE "Faramondo: Act III. Aria: Voglio che sia"
PERFORMER "Fortunato, Baird, Minter - Brewer Chamber Orchestra, Palmer"
INDEX 01 20:03:35
TRACK 10 AUDIO
TITLE "Faramondo: Act III. Recitative: D'un oltraggiato"
PERFORMER "Fortunato, Baird, Minter - Brewer Chamber Orchestra, Palmer"
INDEX 01 27:55:10
TRACK 11 AUDIO
TITLE "Faramondo: Act III. Aria: Se ria procella"
PERFORMER "Fortunato, Baird, Minter - Brewer Chamber Orchestra, Palmer"
INDEX 01 29:33:67
TRACK 12 AUDIO
TITLE "Faramondo: Act III. Recitative: Non isdegnar"
PERFORMER "Fortunato, Baird, Minter - Brewer Chamber Orchestra, Palmer"
INDEX 01 34:20:47
TRACK 13 AUDIO
TITLE "Faramondo: Act III. Aria: Sappi, crudel"
PERFORMER "Fortunato, Baird, Minter - Brewer Chamber Orchestra, Palmer"
INDEX 01 36:21:35
TRACK 14 AUDIO
TITLE "Faramondo: Act III. Recitative: Clotilde, il tuo dolor"
PERFORMER "Fortunato, Baird, Minter - Brewer Chamber Orchestra, Palmer"
INDEX 01 42:02:27
TRACK 15 AUDIO
TITLE "Faramondo: Act III. Aria: Un'aura placida"
PERFORMER "Fortunato, Baird, Minter - Brewer Chamber Orchestra, Palmer"
INDEX 01 43:44:65
TRACK 16 AUDIO
TITLE "Faramondo: Act III. Recitative: Reggi il mio brando"
PERFORMER "Fortunato, Baird, Minter - Brewer Chamber Orchestra, Palmer"
INDEX 01 49:45:70
TRACK 17 AUDIO
TITLE "Faramondo: Act III. Aria/Chorus: Virtu che rende"
PERFORMER "Fortunato, Baird, Minter - Brewer Chamber Orchestra, Palmer"
INDEX 01 51:39:60
Доп. информация:
Handel’s operas were frequently written for some of the finest singers available.
‘Faramondo’ was produced in 1738 at the King’s Theatre in the Haymarket after the collapse of the rival Opera of the Nobility.
This means that, unlike some of his Covent Garden operas which were produced whilst his rivals performed at the King’s Theatre, ‘Faramondo’ was written for a superb cast which included the bass Antonio Montagnana sang the role of King Gustavo and the castrato Carestini (making his London debut) in the title role.
Writing for such fine singers means that Handel takes for granted the ability to sing virtuoso passages.
In fact, singers would have expected to be able to display their talents in the requisite number of arias.
These arias were crafted (or fine tuned) once the cast was known, so that they take advantage of the best points of a singer’s voice.
King Gustavo’s arias takes good advantage of Montagnana’s amazing range and all the singers would have expected the divisions to lie in the best part of their voices.
Signora Antonia Merighi was a contralto profondo who sang eight or nine roles for Handel, leaving us with a legacy of parts with coloratura in what can be a difficult part of the average female voice.
And this is one of the eternal problems of casting Handel operas.
Finding singers who are not only up to the demands of the part, but for whom the part lies in a good part of their voice.
With a complete absence of castrati, a remarkable lack of low contralti and the presence of counter tenors, a voice type Handel used sparingly in the operas, it is not surprising that casting the operas nowadays is difficult.
But a singer must be able to do more than just sing the part.
Handel’s arias are not just vocal concerti, they illuminate aspects of the character and a singer must be able to use the virtuoso passages to help create character.
So when listening to any performance, we are constantly monitoring how the singers match against the ‘ideal’ performance.
Whereas in Puccini’s ‘La Boheme’ we may have heard what comes close to an ideal performance, in a Handel opera we may never have the chance, not even on record.
The plot of ‘Faramondo’ is a little convoluted, turning on a series of relationships both loving and warlike.
Faramondo is at war with Gustavo and has already killed one of Gustavo’s sons.
Gustavo’s surviving son, Adolfo, is in love with Faramondo’s sister, Clotilde.
Gustavo’s daughter, Rosimonda, is loved by and in love with Faramondo.
Gustavo and his children have sworn to avenge Gustavo’s son killed by Faramondo.
Both Gustavo and Gernando (initially an ally of Faramondo’s) are in love with Clotilde.
The drama plays out the character’s conflicts between love and duty.
Handel takes the drama totally seriously.
In fact the opera seems in many ways to hark back to earlier days when he produced such serious works as ‘Radamisto’.
But, ‘Faramondo’ is linked to the later operas by its shortness (the libretto was heavily cut before Handel set it) and a lighter feeling in many of the numbers.
Much of the love music is particularly fine.
In the Montagnana role of Gustavo, Peter Castaldi is reasonably efficient, with a tendency to smudge his passage work and some rather approximate high notes.
The title role is sung by D’Anna Fortunato.
As Clothilde, Julianne Baird has an affecting voice, with a delightful trill.
Drew Minter as Gernando is singing the role written for Signora Antonia Merighi’s low contralto.
Jennifer Lane, singing Rosimonda, has a very dark voice.
As Adolfo, Mary Elen Callahan is more than adequate.
The small role of Childerico, sung by Lorie Gratis, was written for William Savage.
He had been a boy treble, singing in Oberto in ‘Alcina’ and Handel would write the title role of ‘Imeneo’ for him when his voice had settled in a light bass.



Показать сообщения:    

Текущее время: 07-Дек 15:33

Часовой пояс: UTC + 3


Вы не можете начинать темы
Вы не можете отвечать на сообщения
Вы не можете редактировать свои сообщения
Вы не можете удалять свои сообщения
Вы не можете голосовать в опросах
Вы не можете прикреплять файлы к сообщениям
Вы не можете скачивать файлы