(Opera) Umberto Giordano - Andrea Chenier / Умберто Джордано - Андре Шенье (Arturo Basile; Renata Tebaldi, Ugo Savarese, Jose Soler, Irma Colasanti, Giuliano Ferrein), 1953 - Studio of RAI Torino / 1994, FLAC (tracks+.cue), lossless


 

[Цитировать]

Umberto Giordano - Andrea Chenier / Умберто Джордано - Андре Шенье (Arturo Basile; Renata Tebaldi, Ugo Savarese, José Soler, Irma Colasanti, Giuliano Ferrein)
Жанр: Opera
Страна-производитель диска: Италия
Год издания диска: 1994
Издатель (лейбл): Fonit Cetra
Дата записи: 1953
Аудиокодек: FLAC
Тип рипа: tracks+.cue
Битрейт аудио: lossless
Продолжительность: 108:39
Источник: релизер (Guillermo)
Исполнители:
Maddalena di Coigny - Renata Tebaldi,
Carlo Gérard - Ugo Savarese,
Andrea Chénier - José Soler,
La mulatta Bersi - Ines Marietti,
La Contessa di Coigny/Madelon - Irma Colasanti,
Roucher - Giuliano Ferrein,
Il sanculotto Mathieu - Pier Luigi Latinucci,
Fouquier Tinville - Giuliano Ferrein,
Un Incredible - Armando Benzi,
Pietro Fléville - Alberto Albertini,
L'abate - Tommaso Soley.
Conductor - Arturo Basile
Orchestra and Chorus of RAI Torino
Recorded at Studio of RAI Torino, 25 May - 2 June 1953.

Лог создания рипа CD 1

Exact Audio Copy V1.0 beta 3 from 29. August 2011
EAC extraction logfile from 2. August 2015, 8:28
Giordano - Andrea Chenier (Basile 1951) 1 / Giordano - Andrea Chenier (Basile 1951) 1
Used drive : HL-DT-STDVDRAM GH24NSC0 Adapter: 3 ID: 0
Read mode : Secure
Utilize accurate stream : Yes
Defeat audio cache : Yes
Make use of C2 pointers : No
Read offset correction : 6
Overread into Lead-In and Lead-Out : No
Fill up missing offset samples with silence : Yes
Delete leading and trailing silent blocks : No
Null samples used in CRC calculations : Yes
Used interface : Native Win32 interface for Win NT & 2000
Gap handling : Appended to previous track
Used output format : User Defined Encoder
Selected bitrate : 768 kBit/s
Quality : High
Add ID3 tag : No
Command line compressor : C:\Program Files (x86)\Exact Audio Copy\FLAC\FLAC.EXE
Additional command line options : -8 -V -T "ARTIST=%artist%" -T "TITLE=%title%" -T "ALBUM=%albumtitle%" -T "DATE=%year%" -T "TRACKNUMBER=%tracknr%" -T "GENRE=%genre%" -T "PERFORMER=%albuminterpret%" -T "COMPOSER=%composer%" %haslyrics%--tag-from-file=LYRICS="%lyricsfile%"%haslyrics% -T "ALBUMARTIST=%albumartist%" -T "DISCNUMBER=%cdnumber%" -T "TOTALDISCS=%totalcds%" -T "TOTALTRACKS=%numtracks%" -T "COMMENT=%comment%" %source% -o %dest%
TOC of the extracted CD
Track | Start | Length | Start sector | End sector
---------------------------------------------------------
1 | 0:00.33 | 1:48.65 | 33 | 8197
2 | 1:49.23 | 3:51.12 | 8198 | 25534
3 | 5:40.35 | 2:23.25 | 25535 | 36284
4 | 8:03.60 | 2:45.55 | 36285 | 48714
5 | 10:49.40 | 1:09.68 | 48715 | 53957
6 | 11:59.33 | 4:17.20 | 53958 | 73252
7 | 16:16.53 | 2:59.22 | 73253 | 86699
8 | 19:16.00 | 5:14.45 | 86700 | 110294
9 | 24:30.45 | 4:31.13 | 110295 | 130632
10 | 29:01.58 | 1:17.65 | 130633 | 136472
11 | 30:19.48 | 1:09.12 | 136473 | 141659
12 | 31:28.60 | 3:58.25 | 141660 | 159534
13 | 35:27.10 | 2:09.55 | 159535 | 169264
14 | 37:36.65 | 4:04.20 | 169265 | 187584
15 | 41:41.10 | 2:29.55 | 187585 | 198814
16 | 44:10.65 | 3:24.43 | 198815 | 214157
17 | 47:35.33 | 2:33.12 | 214158 | 225644
18 | 50:08.45 | 2:33.63 | 225645 | 237182
19 | 52:42.33 | 1:49.74 | 237183 | 245431
Track 1
Filename f:\Users\Guillermo\Desktop\EAC convertidos\01 QUADRO PRIMO - Questo azurro sof�.wav
Pre-gap length 0:00:02.44
Peak level 66.5 %
Extraction speed 1.3 X
Track quality 100.0 %
Test CRC A88D667E
Copy CRC A88D667E
Copy OK
Track 2
Filename f:\Users\Guillermo\Desktop\EAC convertidos\02 Son sessant�anni.wav
Peak level 51.7 %
Extraction speed 1.7 X
Track quality 100.0 %
Test CRC 6601BF15
Copy CRC 6601BF15
Copy OK
Track 3
Filename f:\Users\Guillermo\Desktop\EAC convertidos\03 Via, v�affrettate.wav
Peak level 44.9 %
Extraction speed 1.6 X
Track quality 100.0 %
Test CRC 95B203CA
Copy CRC 95B203CA
Copy OK
Track 4
Filename f:\Users\Guillermo\Desktop\EAC convertidos\04 Per stasera pazienza!.wav
Peak level 49.5 %
Extraction speed 1.8 X
Track quality 100.0 %
Test CRC 9C02A4DF
Copy CRC 9C02A4DF
Copy OK
Track 5
Filename f:\Users\Guillermo\Desktop\EAC convertidos\05 Debole � il Re ....wav
Peak level 30.2 %
Extraction speed 1.4 X
Track quality 100.0 %
Test CRC D40B6590
Copy CRC D40B6590
Copy OK
Track 6
Filename f:\Users\Guillermo\Desktop\EAC convertidos\06 Passiamo la sera allegramente!.wav
Peak level 38.4 %
Extraction speed 2.1 X
Track quality 100.0 %
Test CRC 3EC52C5C
Copy CRC 3EC52C5C
Copy OK
Track 7
Filename f:\Users\Guillermo\Desktop\EAC convertidos\07 Signor Ch�nier ....wav
Peak level 60.9 %
Extraction speed 2.1 X
Track quality 100.0 %
Test CRC B5B8DCAF
Copy CRC B5B8DCAF
Copy OK
Track 8
Filename f:\Users\Guillermo\Desktop\EAC convertidos\08 Colpito qui m�avete Un d� all�azzurro spazio.wav
Peak level 64.5 %
Extraction speed 2.4 X
Track quality 100.0 %
Test CRC D99B15B4
Copy CRC D99B15B4
Copy OK
Track 9
Filename f:\Users\Guillermo\Desktop\EAC convertidos\09 Perdonatemi!.wav
Peak level 55.9 %
Extraction speed 2.2 X
Track quality 99.9 %
Test CRC 84E78103
Copy CRC 84E78103
Copy OK
Track 10
Filename f:\Users\Guillermo\Desktop\EAC convertidos\10 QUADRO SECONDO - Per l�ex inferno!.wav
Pre-gap length 0:00:00.86
Peak level 45.8 %
Extraction speed 1.8 X
Track quality 100.0 %
Test CRC 6D1F456D
Copy CRC 6D1F456D
Copy OK
Track 11
Filename f:\Users\Guillermo\Desktop\EAC convertidos\11 Temer Perch�.wav
Peak level 56.9 %
Extraction speed 1.2 X
Track quality 99.6 %
Test CRC A7F52B04
Copy CRC A7F52B04
Copy OK
Track 12
Filename f:\Users\Guillermo\Desktop\EAC convertidos\12 Io credo! ... Credo a una possanza arcana.wav
Peak level 93.3 %
Extraction speed 2.2 X
Track quality 99.9 %
Test CRC 19317FBC
Copy CRC 19317FBC
Copy OK
Track 13
Filename f:\Users\Guillermo\Desktop\EAC convertidos\13 Calligraf�a invero femmini!.wav
Peak level 92.4 %
Extraction speed 2.3 X
Track quality 100.0 %
Test CRC D5F0C9FE
Copy CRC D5F0C9FE
Copy OK
Track 14
Filename f:\Users\Guillermo\Desktop\EAC convertidos\14 Accetto il passaporto.wav
Peak level 74.8 %
Extraction speed 2.8 X
Track quality 100.0 %
Test CRC 3E8B3B6C
Copy CRC 3E8B3B6C
Copy OK
Track 15
Filename f:\Users\Guillermo\Desktop\EAC convertidos\15 Andrea Ch�nier!.wav
Peak level 42.6 %
Extraction speed 2.6 X
Track quality 100.0 %
Test CRC 7A2B373A
Copy CRC 7A2B373A
Copy OK
Track 16
Filename f:\Users\Guillermo\Desktop\EAC convertidos\16 Ecco l�altare.wav
Peak level 70.4 %
Extraction speed 2.3 X
Track quality 99.8 %
Test CRC 9C60322F
Copy CRC 9C60322F
Copy OK
Track 17
Filename f:\Users\Guillermo\Desktop\EAC convertidos\17 Eravate possente.wav
Peak level 83.7 %
Extraction speed 2.7 X
Track quality 100.0 %
Test CRC AD539F24
Copy CRC AD539F24
Copy OK
Track 18
Filename f:\Users\Guillermo\Desktop\EAC convertidos\18 Ora soave.wav
Peak level 61.8 %
Extraction speed 2.7 X
Track quality 100.0 %
Test CRC 15AAEDB0
Copy CRC 15AAEDB0
Copy OK
Track 19
Filename f:\Users\Guillermo\Desktop\EAC convertidos\19 Maddalena di Coigny!.wav
Peak level 82.9 %
Extraction speed 2.5 X
Track quality 100.0 %
Test CRC 06A79054
Copy CRC 06A79054
Copy OK
No errors occurred
End of status report
==== Log checksum A8561978BFEE4A6A9020C3BE554986211C43E340573B079A6DCA0328848D5E06 ====

Лог создания рипа CD 2

Exact Audio Copy V1.0 beta 3 from 29. August 2011
EAC extraction logfile from 2. August 2015, 12:20
Giordano - Andrea Chenier (Basile 1953) 2 / Giordano - Andrea Chenier (Basile 1953) 2
Used drive : HL-DT-STDVDRAM GH24NSC0 Adapter: 3 ID: 0
Read mode : Secure
Utilize accurate stream : Yes
Defeat audio cache : Yes
Make use of C2 pointers : No
Read offset correction : 6
Overread into Lead-In and Lead-Out : No
Fill up missing offset samples with silence : Yes
Delete leading and trailing silent blocks : No
Null samples used in CRC calculations : Yes
Used interface : Native Win32 interface for Win NT & 2000
Gap handling : Appended to previous track
Used output format : User Defined Encoder
Selected bitrate : 768 kBit/s
Quality : High
Add ID3 tag : No
Command line compressor : C:\Program Files (x86)\Exact Audio Copy\FLAC\FLAC.EXE
Additional command line options : -8 -V -T "ARTIST=%artist%" -T "TITLE=%title%" -T "ALBUM=%albumtitle%" -T "DATE=%year%" -T "TRACKNUMBER=%tracknr%" -T "GENRE=%genre%" -T "PERFORMER=%albuminterpret%" -T "COMPOSER=%composer%" %haslyrics%--tag-from-file=LYRICS="%lyricsfile%"%haslyrics% -T "ALBUMARTIST=%albumartist%" -T "DISCNUMBER=%cdnumber%" -T "TOTALDISCS=%totalcds%" -T "TOTALTRACKS=%numtracks%" -T "COMMENT=%comment%" %source% -o %dest%
TOC of the extracted CD
Track | Start | Length | Start sector | End sector
---------------------------------------------------------
1 | 0:00.33 | 3:35.45 | 33 | 16202
2 | 3:36.03 | 1:52.15 | 16203 | 24617
3 | 5:28.18 | 3:11.12 | 24618 | 38954
4 | 8:39.30 | 1:36.58 | 38955 | 46212
5 | 10:16.13 | 2:39.05 | 46213 | 58142
6 | 12:55.18 | 5:44.40 | 58143 | 83982
7 | 18:39.58 | 4:20.20 | 83983 | 103502
8 | 23:00.03 | 6:02.12 | 103503 | 130664
9 | 29:02.15 | 1:50.05 | 130665 | 138919
10 | 30:52.20 | 3:55.13 | 138920 | 156557
11 | 34:47.33 | 2:29.70 | 156558 | 167802
12 | 37:17.28 | 2:52.05 | 167803 | 180707
13 | 40:09.33 | 1:32.00 | 180708 | 187607
14 | 41:41.33 | 2:49.02 | 187608 | 200284
15 | 44:30.35 | 3:55.73 | 200285 | 217982
16 | 48:26.33 | 7:11.74 | 217983 | 250381
Track 1
Filename f:\Users\Guillermo\Desktop\EAC convertidos\01 QUADRO TERZO - ... Dumouriez traditore.wav
Pre-gap length 0:00:02.44
Peak level 69.3 %
Extraction speed 1.6 X
Track quality 100.0 %
Test CRC A1AC0E5F
Copy CRC A1AC0E5F
Copy OK
Track 2
Filename f:\Users\Guillermo\Desktop\EAC convertidos\02 Lacrime e sangue.wav
Peak level 52.9 %
Extraction speed 1.4 X
Track quality 100.0 %
Test CRC 8E476BB5
Copy CRC 8E476BB5
Copy OK
Track 3
Filename f:\Users\Guillermo\Desktop\EAC convertidos\03 Son la vecchia Madelon.wav
Peak level 56.8 %
Extraction speed 1.8 X
Track quality 100.0 %
Test CRC 0330A6AE
Copy CRC 0330A6AE
Copy OK
Track 4
Filename f:\Users\Guillermo\Desktop\EAC convertidos\04 Amici ancor cantiam!.wav
Peak level 29.5 %
Extraction speed 1.5 X
Track quality 100.0 %
Test CRC ACC38100
Copy CRC ACC38100
Copy OK
Track 5
Filename f:\Users\Guillermo\Desktop\EAC convertidos\05 Ebben Donnina innamorata.wav
Peak level 29.5 %
Extraction speed 1.8 X
Track quality 100.0 %
Test CRC 1E340CEF
Copy CRC 1E340CEF
Copy OK
Track 6
Filename f:\Users\Guillermo\Desktop\EAC convertidos\06 Nemico della patria.wav
Peak level 58.6 %
Extraction speed 2.3 X
Track quality 100.0 %
Test CRC 3115217C
Copy CRC 3115217C
Copy OK
Track 7
Filename f:\Users\Guillermo\Desktop\EAC convertidos\07 Carlo G�rard.wav
Peak level 72.1 %
Extraction speed 2.3 X
Track quality 100.0 %
Test CRC B6E4E7A9
Copy CRC B6E4E7A9
Copy OK
Track 8
Filename f:\Users\Guillermo\Desktop\EAC convertidos\08 Coma sa amare! La mamma morta.wav
Peak level 60.7 %
Extraction speed 2.6 X
Track quality 100.0 %
Test CRC E607B008
Copy CRC E607B008
Copy OK
Track 9
Filename f:\Users\Guillermo\Desktop\EAC convertidos\09 Corpo di moribonda � il corpo mio!.wav
Peak level 55.4 %
Extraction speed 2.0 X
Track quality 100.0 %
Test CRC 3FB240AE
Copy CRC 3FB240AE
Copy OK
Track 10
Filename f:\Users\Guillermo\Desktop\EAC convertidos\10 Mamma Cadet! ... Presso la sbarra, qui!.wav
Peak level 67.2 %
Extraction speed 2.2 X
Track quality 99.9 %
Test CRC 089299D5
Copy CRC 089299D5
Copy OK
Track 11
Filename f:\Users\Guillermo\Desktop\EAC convertidos\11 S�, fui soldato.wav
Peak level 92.1 %
Extraction speed 2.4 X
Track quality 100.0 %
Test CRC 06276AC8
Copy CRC 06276AC8
Copy OK
Track 12
Filename f:\Users\Guillermo\Desktop\EAC convertidos\12 Udiamo i testemoni!.wav
Peak level 92.0 %
Extraction speed 2.1 X
Track quality 99.8 %
Test CRC 1B77020C
Copy CRC 1B77020C
Copy OK
Track 13
Filename f:\Users\Guillermo\Desktop\EAC convertidos\13 QUADRO QUARTO - Cittadino, men duol.wav
Pre-gap length 0:00:07.01
Peak level 40.6 %
Extraction speed 2.1 X
Track quality 100.0 %
Test CRC 39E443AE
Copy CRC 39E443AE
Copy OK
Track 14
Filename f:\Users\Guillermo\Desktop\EAC convertidos\14 Come un bel d� di maggio.wav
Peak level 60.4 %
Extraction speed 2.6 X
Track quality 100.0 %
Test CRC 93F002DB
Copy CRC 93F002DB
Copy OK
Track 15
Filename f:\Users\Guillermo\Desktop\EAC convertidos\15 Viene a costei concesso.wav
Peak level 64.6 %
Extraction speed 2.9 X
Track quality 100.0 %
Test CRC DB6C4C82
Copy CRC DB6C4C82
Copy OK
Track 16
Filename f:\Users\Guillermo\Desktop\EAC convertidos\16 Vicino a te s`acqueta.wav
Peak level 63.8 %
Extraction speed 3.3 X
Track quality 100.0 %
Test CRC 12A226A0
Copy CRC 12A226A0
Copy OK
No errors occurred
End of status report
==== Log checksum 2FA19BA3D6CCE5B91310827E4534491FCC8CB1553B759D6A3C430B7B54A5BE9E ====

Содержание индексной карты (.CUE)Содержание индексной карты (.CUE) CD 1

REM GENRE Opera
REM DATE 1951
REM DISCID F70CC813
REM COMMENT "ExactAudioCopy v1.0b3"
FILE "01 QUADRO PRIMO - Questo azurro sof..wav" WAVE
TRACK 01 AUDIO
PREGAP 00:00:33
INDEX 01 00:00:00
FILE "02 Son sessant.anni.wav" WAVE
TRACK 02 AUDIO
INDEX 01 00:00:00
FILE "03 Via, v.affrettate.wav" WAVE
TRACK 03 AUDIO
INDEX 01 00:00:00
FILE "04 Per stasera pazienza!.wav" WAVE
TRACK 04 AUDIO
INDEX 01 00:00:00
FILE "05 Debole . il Re ....wav" WAVE
TRACK 05 AUDIO
INDEX 01 00:00:00
FILE "06 Passiamo la sera allegramente!.wav" WAVE
TRACK 06 AUDIO
INDEX 01 00:00:00
FILE "07 Signor Ch.nier ....wav" WAVE
TRACK 07 AUDIO
INDEX 01 00:00:00
FILE "08 Colpito qui m.avete Un d. all.azzurro spazio.wav" WAVE
TRACK 08 AUDIO
INDEX 01 00:00:00
FILE "09 Perdonatemi!.wav" WAVE
TRACK 09 AUDIO
INDEX 01 00:00:00
TRACK 10 AUDIO
INDEX 00 04:30:23
FILE "10 QUADRO SECONDO - Per l.ex inferno!.wav" WAVE
INDEX 01 00:00:00
FILE "11 Temer Perch..wav" WAVE
TRACK 11 AUDIO
INDEX 01 00:00:00
FILE "12 Io credo! ... Credo a una possanza arcana.wav" WAVE
TRACK 12 AUDIO
INDEX 01 00:00:00
FILE "13 Calligraf.a invero femmini!.wav" WAVE
TRACK 13 AUDIO
INDEX 01 00:00:00
FILE "14 Accetto il passaporto.wav" WAVE
TRACK 14 AUDIO
INDEX 01 00:00:00
FILE "15 Andrea Ch.nier!.wav" WAVE
TRACK 15 AUDIO
INDEX 01 00:00:00
FILE "16 Ecco l.altare.wav" WAVE
TRACK 16 AUDIO
INDEX 01 00:00:00
FILE "17 Eravate possente.wav" WAVE
TRACK 17 AUDIO
INDEX 01 00:00:00
FILE "18 Ora soave.wav" WAVE
TRACK 18 AUDIO
INDEX 01 00:00:00
FILE "19 Maddalena di Coigny!.wav" WAVE
TRACK 19 AUDIO
INDEX 01 00:00:00

Содержание индексной карты (.CUE) CD 2

REM GENRE Opera
REM DATE 1953
REM DISCID CD0D0A10
REM COMMENT "ExactAudioCopy v1.0b3"
FILE "01 QUADRO TERZO - ... Dumouriez traditore.wav" WAVE
TRACK 01 AUDIO
PREGAP 00:00:33
INDEX 01 00:00:00
FILE "02 Lacrime e sangue.wav" WAVE
TRACK 02 AUDIO
INDEX 01 00:00:00
FILE "03 Son la vecchia Madelon.wav" WAVE
TRACK 03 AUDIO
INDEX 01 00:00:00
FILE "04 Amici ancor cantiam!.wav" WAVE
TRACK 04 AUDIO
INDEX 01 00:00:00
FILE "05 Ebben Donnina innamorata.wav" WAVE
TRACK 05 AUDIO
INDEX 01 00:00:00
FILE "06 Nemico della patria.wav" WAVE
TRACK 06 AUDIO
INDEX 01 00:00:00
FILE "07 Carlo G.rard.wav" WAVE
TRACK 07 AUDIO
INDEX 01 00:00:00
FILE "08 Coma sa amare! La mamma morta.wav" WAVE
TRACK 08 AUDIO
INDEX 01 00:00:00
FILE "09 Corpo di moribonda . il corpo mio!.wav" WAVE
TRACK 09 AUDIO
INDEX 01 00:00:00
FILE "10 Mamma Cadet! ... Presso la sbarra, qui!.wav" WAVE
TRACK 10 AUDIO
INDEX 01 00:00:00
FILE "11 S., fui soldato.wav" WAVE
TRACK 11 AUDIO
INDEX 01 00:00:00
FILE "12 Udiamo i testemoni!.wav" WAVE
TRACK 12 AUDIO
INDEX 01 00:00:00
TRACK 13 AUDIO
INDEX 00 02:45:04
FILE "13 QUADRO QUARTO - Cittadino, men duol.wav" WAVE
INDEX 01 00:00:00
FILE "14 Come un bel d. di maggio.wav" WAVE
TRACK 14 AUDIO
INDEX 01 00:00:00
FILE "15 Viene a costei concesso.wav" WAVE
TRACK 15 AUDIO
INDEX 01 00:00:00
FILE "16 Vicino a te s`acqueta.wav" WAVE
TRACK 16 AUDIO
INDEX 01 00:00:00

Треклист

Disc 1:
Act 1
1. Questo azzurra sofà ... Compiacente a'colloqui
2. Son Sessant'anni, О Vecchio, Che Tu Servi!
3. Via, v'affrettate
4. Per stasera pazienca
5. Dedole il Re
6. Passiamo la sera allegramente! ... O Pastorelle addio!
7. Signor Chenier - Madama La Contessa? - La Vostra Musa Tace?
8. Colpito qui m'avete Ov'io Geloso Celo Il Piu Puro Palpitar Dell'anima... Un dì all'azzura spazio
9. Perdonatemi! ... La notte il giorno portiamo
Act 2
10. Per l'ex inferno!
11. Temer? Perchè?
12. Credo a una possanza arcana
13. Calligrafia invero femminil!
14. Accetto il passaporto
15. Andrea Chénier
16. Ecco l'altare...
17. Eravate posente
18. Ora Soave, Sublime Ora D'amore!
19. Maddalena di Coigny!
Disc 2:
Act 3
1. Dumouriez traditore ... Grazie, cittadini
2. Lacrime e sangue dà la Francia
3. Son la vecchia Madelon
4. Amici ancor cantiam
5. Donnina innamorata
6. Nemico della Patria? ... Traditore! ... La coscienza
7. Carlo Gérard? ... Io t'aspettava!
8. La mamma morta
9. Corpo di moribonda
10. Mamma Cadet! Presso Alla Sbarra, Qui!
11. Sì, fui soldato .. Passa la vita mia
12. Udiamo i testimoni! ... Qui la giustizia ha nome
Act 4
13. Cittadino, men duol
14. Come un bel dì di maggio
15. Viene A Costei Concesso Un Ultimo Colloquio
14. Vicino a te S'acqueta L'irrequieta Anima Mia



Показать сообщения:    

Текущее время: 07-Дек 19:21

Часовой пояс: UTC + 3


Вы не можете начинать темы
Вы не можете отвечать на сообщения
Вы не можете редактировать свои сообщения
Вы не можете удалять свои сообщения
Вы не можете голосовать в опросах
Вы не можете прикреплять файлы к сообщениям
Вы не можете скачивать файлы