(Oratorio) Franz Schmidt - Das Buch Mit Sieben Siegeln {The Book Of The Seven Seals} (Andersen, Pape, Oelze, Kallisch, Odinius, Raiter, Chor Und Symphonieorchester Des Bayerischen Rundfunks, Franz Welser-Most) - 1998, FLAC (image+.cue) lossless


Статистика раздачи [Обновить пиров]
Размер:  405 MB   |    Зарегистрирован:  8 месяцев 14 дней   |    Скачан:  0 раз

Полного источника не было: Никогда

 
   
 
 
 

[Цитировать]

Franz Schmidt - Das Buch Mit Sieben SiegelnChor Und Symphonieorchester Des Bayerischen Rundfunks | F.Welser-Möst Жанр: Oratorio
Страна-производитель диска: EU
Год издания диска: 1998
Издатель (лейбл): EMI
Номер по каталогу: 7243 5 56660 2 4
Дата записи: 1997
Аудиокодек: FLAC
Тип рипа: image+.cue
Битрейт аудио: lossless
Продолжительность: 1:46:48
Источник: web
Наличие сканов в содержимом раздачи: да (частично)
Исполнители:
Stig Andersen - tenor
René Pape - bass
Christiane Oelze - soprano
Cornelia Kallisch - contralto
Lothar Odinius - tenor
Alfred Reiter - bass
Friedemann Winklhofer - organ
Chor Und Symphonieorchester Des Bayerischen Rundfunks
Franz Welser-Möst
- conductor

Треклист

CD 1
01.Gnade sei mit euch 03:50
02.Ich bin das A und das O 01:34
03.Und eine Tur ward aufgetan im Himmel 04:24
04.Heilig, heilig ist Gott der Allmachtige 05:40
05.Und ich sah in der rechten Hand 05:25
06.Nun sah ich, und siehe, mitten vor dem Throne 06:28
07.Orgel solo 03:36
08.Und als das Lamm der Siegel erstes auftrat 02:13
09.Und als das Lamm der Siegel zweites auftrat 06:07
10.Und als das Lamm der Siegel drittes auftrat 03:57
11.Und als das Lamm der Siegel viertes auftrat 03:49
12.Und als das Lamm der Siegel funftes auftrat 04:21
13.Und es wurde ihnen einem jeglichen gegeben ein we... 02:13
14.Und ich sah, dass das Lamm der Siegel sechstes au... 07:19
CD 2
01.Nach dem Auftun des siebenten der Siegel 05:55
02.Ein Weib, umkleidet mit der Sonne 03:08
03.Und sie gebar einen Sohn 02:12
04.Im Himmel aber erhob sich ein groser Streit 06:27
05.Und als die grose Stille im Himmel voruber war 09:59
06.Vor dem Angesichte dessen, der auf weisem Throne sas 03:51
07.Ich bin das A und das O 04:55
08.Hallelujah! 04:51
09.Wir danken die, o Herr, allmachtiger Gott 02:19
10.Ich bin es, Johannes, der all dies horte 02:06

Лог создания рипа

Лог создания рипа CD1

Exact Audio Copy V1.0 beta 3 from 29. August 2011
File di log EAC per l'estrazione del 4. Novembre 2014, 1:04
Andersen, Pape, Oelze, Welser-Möst, Chor und SodBR / The Book with Seven Seals (CD1)
Unità predefinita : TSSTcorpCDDVDW SH-S203N Adapter: 1 ID: 0
Modalità di lettura : Sicura
Utilizza lettura accurata : Sì
Disattiva cache audio : Sì
Rileva errori lettura C2 : No
Correzione offset di lettura : 6
Compensa lettura nel Lead-In e nel Lead-Out : No
Riempi sample offset mancanti con silenzio : Sì
Rimuovi blocchi di silenzio ad inizio e fine traccia : No
Usa i sample nulli nel calcolo CRC : Sì
Interfaccia usata : Interfaccia nativa Win32 Per Windows XP/Vista/Win 7
Formato di destinazione scelto : Usa Encoder Definito Da Utente
Bitrate selezionato : 768 kBit/s
Qualità : Alta
Aggiungi tag ID3 : Sì
Compressore a riga di comando : C:\Program Files\FLAC\FLAC frontend.exe
TOC del CD estratto
Traccia | Inizio | Lunghezza | Inizio settore | Fine settore
----------------------------------------------------------------
1 | 0:00.00 | 3:50.32 | 0 | 17281
2 | 3:50.32 | 1:34.70 | 17282 | 24401
3 | 5:25.27 | 4:24.13 | 24402 | 44214
4 | 9:49.40 | 5:40.35 | 44215 | 69749
5 | 15:30.00 | 5:25.22 | 69750 | 94146
6 | 20:55.22 | 6:28.28 | 94147 | 123274
7 | 27:23.50 | 3:36.45 | 123275 | 139519
8 | 31:00.20 | 2:13.30 | 139520 | 149524
9 | 33:13.50 | 6:07.22 | 149525 | 177071
10 | 39:20.72 | 3:57.38 | 177072 | 194884
11 | 43:18.35 | 3:49.30 | 194885 | 212089
12 | 47:07.65 | 4:21.15 | 212090 | 231679
13 | 51:29.05 | 2:13.30 | 231680 | 241684
14 | 53:42.35 | 7:19.02 | 241685 | 274611
Stato intervallo ed errori
Intervallo selezionato
Nome file H:\BLOGGER\AA CD RIPPATI\Schmidt Das Buch mit sieben Siegeln Welser-Möst 1997\Andersen, Pape, Oelze, Welser-Möst, Chor und SodBR - The Book with Seven Seals (CD1).wav
Livello di picco 97.6 %
Velocità estrazione 7.1 X
Qualità intervallo 100.0 %
Copia CRC AF7A5895
Copia corretta
Non sono stati riscontrati errori
Sommario Accuraterip
Traccia 1 Estratta accuratamente (Confidence 4) [DE1BDCFE] (AR v2)
Traccia 2 Estratta accuratamente (Confidence 4) [B5E73BA9] (AR v2)
Traccia 3 Estratta accuratamente (Confidence 4) [9EF38B9C] (AR v2)
Traccia 4 Estratta accuratamente (Confidence 4) [4E6D2017] (AR v2)
Traccia 5 Estratta accuratamente (Confidence 4) [9C4F6893] (AR v2)
Traccia 6 Estratta accuratamente (Confidence 4) [A6C0F1D9] (AR v2)
Traccia 7 Estratta accuratamente (Confidence 4) [D7B40BF6] (AR v2)
Traccia 8 Estratta accuratamente (Confidence 4) [AF125B43] (AR v2)
Traccia 9 Estratta accuratamente (Confidence 4) [F98EA036] (AR v2)
Traccia 10 Estratta accuratamente (Confidence 4) [C27367F8] (AR v2)
Traccia 11 Estratta accuratamente (Confidence 4) [15889278] (AR v2)
Traccia 12 Estratta accuratamente (Confidence 4) [60105E55] (AR v2)
Traccia 13 Estratta accuratamente (Confidence 4) [1F4039AC] (AR v2)
Traccia 14 Estratta accuratamente (Confidence 4) [6384A6DC] (AR v2)
Tutte le tracce sono state estratte accuratamente
Fine del resoconto di stato

Лог создания рипа CD2

Exact Audio Copy V1.0 beta 3 from 29. August 2011
File di log EAC per l'estrazione del 4. Novembre 2014, 1:16
Andersen, Pape, Oelze, Welser-Möst, Chor und SodBR / The Book with Seven Seals (CD2)
Unità predefinita : TSSTcorpCDDVDW SH-S203N Adapter: 1 ID: 0
Modalità di lettura : Sicura
Utilizza lettura accurata : Sì
Disattiva cache audio : Sì
Rileva errori lettura C2 : No
Correzione offset di lettura : 6
Compensa lettura nel Lead-In e nel Lead-Out : No
Riempi sample offset mancanti con silenzio : Sì
Rimuovi blocchi di silenzio ad inizio e fine traccia : No
Usa i sample nulli nel calcolo CRC : Sì
Interfaccia usata : Interfaccia nativa Win32 Per Windows XP/Vista/Win 7
Formato di destinazione scelto : Usa Encoder Definito Da Utente
Bitrate selezionato : 768 kBit/s
Qualità : Alta
Aggiungi tag ID3 : Sì
Compressore a riga di comando : C:\Program Files\FLAC\FLAC frontend.exe
TOC del CD estratto
Traccia | Inizio | Lunghezza | Inizio settore | Fine settore
----------------------------------------------------------------
1 | 0:00.00 | 5:55.07 | 0 | 26631
2 | 5:55.07 | 3:08.33 | 26632 | 40764
3 | 9:03.40 | 2:12.27 | 40765 | 50691
4 | 11:15.67 | 6:27.58 | 50692 | 79774
5 | 17:43.50 | 9:59.27 | 79775 | 124726
6 | 27:43.02 | 3:51.05 | 124727 | 142056
7 | 31:34.07 | 4:55.58 | 142057 | 164239
8 | 36:29.65 | 4:51.02 | 164240 | 186066
9 | 41:20.67 | 2:19.58 | 186067 | 196549
10 | 43:40.50 | 2:06.47 | 196550 | 206046
Stato intervallo ed errori
Intervallo selezionato
Nome file H:\BLOGGER\AA CD RIPPATI\Schmidt Das Buch mit sieben Siegeln Welser-Möst 1997\Andersen, Pape, Oelze, Welser-Möst, Chor und SodBR - The Book with Seven Seals (CD2).wav
Livello di picco 98.3 %
Velocità estrazione 6.4 X
Qualità intervallo 99.9 %
Copia CRC 7B7DFABF
Copia corretta
Non sono stati riscontrati errori
Sommario Accuraterip
Traccia 1 Estratta accuratamente (Confidence 4) [7D406642] (AR v2)
Traccia 2 Estratta accuratamente (Confidence 4) [FD722487] (AR v2)
Traccia 3 Estratta accuratamente (Confidence 4) [F1382653] (AR v2)
Traccia 4 Estratta accuratamente (Confidence 4) [4326A1C2] (AR v2)
Traccia 5 Estratta accuratamente (Confidence 4) [11B9129A] (AR v2)
Traccia 6 Estratta accuratamente (Confidence 4) [DE5D6B0E] (AR v2)
Traccia 7 Estratta accuratamente (Confidence 4) [B3FFBE15] (AR v2)
Traccia 8 Estratta accuratamente (Confidence 4) [8A9D88F0] (AR v2)
Traccia 9 Estratta accuratamente (Confidence 4) [1C2D3B9F] (AR v2)
Traccia 10 Estratta accuratamente (Confidence 4) [193DFFA9] (AR v2)
Tutte le tracce sono state estratte accuratamente
Fine del resoconto di stato

Лог проверки качества

AUDIOCHECKER v2.0 beta (build 457) - by Dester - opdester@freemail.hu
~~~~~~~~~~~~~~~~~~~~~~~~~~~~~~~~~~
-=== DO NOT EDIT THIS FILE! ===-
Path: ...\Schmidt - Das Buch Mit Sieben Siegeln
1 -=- The Book with Seven Seals (CD1).flac -=- CDDA (99%)
2 -=- The Book with Seven Seals (CD2).flac -=- CDDA (100%)
Summary 99,50% CDDA
26206372

Дополнительная информация

Информация о произведении
[teatrix.ru].t21925.torrent 
Торрент: Зарегистрирован [ 2016-03-20 12:49 ] · FB8DA913EB91F8C5EBBA7A0EE62659439CAE9EE4

Скачать .torrent

Скачать

17 KB

Статус: проверено
Скачан: 0 раз
Размер: 405 MB
terms.php



Быстрый ответ

Имя:

      
Для отправки сообщений необходимо включить JavaScript
Показать сообщения:    

Текущее время: 03-Дек 18:43

Часовой пояс: UTC + 3


Вы можете начинать темы
Вы можете отвечать на сообщения
Вы не можете редактировать свои сообщения
Вы не можете удалять свои сообщения
Вы не можете голосовать в опросах
Вы не можете прикреплять файлы к сообщениям
Вы можете скачивать файлы