(Classical opera) Giacomo Puccini - Turandot (Andrea Bocelli, Jennifer Wilson / Orquestra de la Comunitat Valenciana, Zubin Mehta) - 2015, FLAC (tracks+.cue) lossless


 

[Цитировать]

Giacomo Puccini - Turandot - Andrea Bocelli

Жанр: Classical opera
Страна-производитель диска: Made in Germany
Год издания диска: 2015
Издатель (лейбл): Decca Classics
Номер по каталогу: 289478829302D
Дата записи: 2015
Аудиокодек: FLAC
Тип рипа: tracks+.cue
Битрейт аудио: lossless
Продолжительность: общее время 118 минут
Источник: релизер
сайт-источник/ник/другое: jbglx
Наличие сканов в содержимом раздачи: да
Треклист:

скрытый текст

CD1
1 Popoli di Pekino!
2 Gira la cote!
3 O giovinetto! Grazia, grazia!
4 Figlio, che fai?
5 Fermo! Che fai? T'arresta
6 Signore, ascolta
7 Non piangere Liù
8 Olà, Pang! Olà, Pong!
9 Ho una casa nell'Honan
10 O mondo, O mondo
11 Introduzione
12 Gravi, enormi ed impotenti
13 Un giuramento atroce mi costringe
14 Popolo di Pekino
CD2
1 In questa reggia
2 Straniero, ascolta
3 Gloria, gloria, o vincitore
4 Tre enigmi m'hai proposto
5 Introduzione - Così comanda Turandot
6 Nessun dorma!
7 Principessa divina!
8 Tu che di gel sei cinta
9 Liù! Liù! Sorgi! Sorgi
10 Principessa di morte!
11 Che è mai di me?
12 Del primo pianto
13 So il tuo nome!
14 Diecimilia anni al nostro Imperatore!
Исполнители:

скрытый текст

Giacomo Puccini
Turandot
Italian Opera in three acts
(ended by Franco Alfano after Puccini´s death)
Sung in italian
Turandot : Jennifer Wilson
Prince Calaf : Andrea Bocelli
Liú : Jessica Nuccio
Timur : Alexander Tsymbalyuk
Ping : Germán Olivera
Pang : Valentino Buzza
Pong : Pablo García López
L’Imperatore Altoum : Javier Agullo
Un Mandarino : Ventseslav Anastasov
Il Principe di Persia : Javier Agullo
Cor de la Generalitat Valenciana
Escolania de la Mare de Déu dels Desemparats
Orquestra de la Comunitat Valenciana
Zubin Mehta
Recording Location: Palau de les Arts Reina Sofía, Valencia , 2015.
Balance & Recording Engineer: Pierpaolo Guerrini
Released July 31, 2015
Лог создания рипа
CD1

скрытый текст

Exact Audio Copy V1.0 beta 3 from 29. August 2011
EAC extraction logfile from 1. August 2015, 16:48
Andrea Bocelli - Jennifer Wilson / Puccini - Turandot - CD 1
Used drive : SONY DVD RW DRU-840A Adapter: 0 ID: 1
Read mode : Secure
Utilize accurate stream : Yes
Defeat audio cache : Yes
Make use of C2 pointers : No
Read offset correction : 6
Overread into Lead-In and Lead-Out : No
Fill up missing offset samples with silence : Yes
Delete leading and trailing silent blocks : No
Null samples used in CRC calculations : Yes
Used interface : Native Win32 interface for Win NT & 2000
Gap handling : Not detected, thus appended to previous track
Used output format : User Defined Encoder
Selected bitrate : 320 kBit/s
Quality : High
Add ID3 tag : No
Command line compressor : C:\Archivos de programa\Exact Audio Copy\FLAC\FLAC.EXE
Additional command line options : -6 -V -T "ARTIST=%artist%" -T "TITLE=%title%" -T "ALBUM=%albumtitle%" -T "DATE=%year%" -T "TRACKNUMBER=%tracknr%" -T "GENRE=%genre%" -T "COMMENT=%comment%" -T "BAND=%albuminterpret%" -T "ALBUMARTIST=%albuminterpret%" -T "COMPOSER=%composer%" %haslyrics%--tag-from-file=LYRICS="%lyricsfile%"%haslyrics% -T "DISCNUMBER=%cdnumber%" -T "TOTALDISCS=%totalcds%" -T "TOTALTRACKS=%numtracks%" %hascover%--picture="%coverfile%"%hascover% %source% -o %dest%
TOC of the extracted CD
Track | Start | Length | Start sector | End sector
---------------------------------------------------------
1 | 0:00.00 | 5:41.50 | 0 | 25624
2 | 5:41.50 | 7:17.46 | 25625 | 58445
3 | 12:59.21 | 4:57.59 | 58446 | 80779
4 | 17:57.05 | 1:35.03 | 80780 | 87907
5 | 19:32.08 | 6:11.08 | 87908 | 115740
6 | 25:43.16 | 2:30.71 | 115741 | 127061
7 | 28:14.12 | 5:21.01 | 127062 | 151137
8 | 33:35.13 | 3:43.50 | 151138 | 167912
9 | 37:18.63 | 3:39.29 | 167913 | 184366
10 | 40:58.17 | 4:34.10 | 184367 | 204926
11 | 45:32.27 | 1:05.11 | 204927 | 209812
12 | 46:37.38 | 3:18.72 | 209813 | 224734
13 | 49:56.35 | 3:25.65 | 224735 | 240174
14 | 53:22.25 | 1:40.34 | 240175 | 247708
Track 1
Filename E:\MUSIC\My Music\Puccini - Turandot - Bocelli\Turandot - Bocelli - Metha - CD 1\CD\01 Popolo de Pekino.wav
Peak level 97.7 %
Extraction speed 2.0 X
Track quality 100.0 %
Test CRC 97EC7F54
Copy CRC 97EC7F54
Track not present in AccurateRip database
Copy OK
Track 2
Filename E:\MUSIC\My Music\Puccini - Turandot - Bocelli\Turandot - Bocelli - Metha - CD 1\CD\02 Gira la cote.wav
Peak level 97.7 %
Extraction speed 2.4 X
Track quality 100.0 %
Test CRC B574B2A9
Copy CRC B574B2A9
Track not present in AccurateRip database
Copy OK
Track 3
Filename E:\MUSIC\My Music\Puccini - Turandot - Bocelli\Turandot - Bocelli - Metha - CD 1\CD\03 O giovinetto , grazia , grazia.wav
Peak level 98.0 %
Extraction speed 2.2 X
Track quality 99.9 %
Test CRC F3342024
Copy CRC F3342024
Track not present in AccurateRip database
Copy OK
Track 4
Filename E:\MUSIC\My Music\Puccini - Turandot - Bocelli\Turandot - Bocelli - Metha - CD 1\CD\04 Figlio , che fai.wav
Peak level 97.7 %
Extraction speed 2.1 X
Track quality 100.0 %
Test CRC 2771A4BE
Copy CRC 2771A4BE
Track not present in AccurateRip database
Copy OK
Track 5
Filename E:\MUSIC\My Music\Puccini - Turandot - Bocelli\Turandot - Bocelli - Metha - CD 1\CD\05 Fermo , che fai , t´arresta.wav
Peak level 100.0 %
Extraction speed 2.9 X
Track quality 100.0 %
Test CRC C4801501
Copy CRC C4801501
Track not present in AccurateRip database
Copy OK
Track 6
Filename E:\MUSIC\My Music\Puccini - Turandot - Bocelli\Turandot - Bocelli - Metha - CD 1\CD\06 Signore , ascolta.wav
Peak level 97.6 %
Extraction speed 2.7 X
Track quality 100.0 %
Test CRC DF22B315
Copy CRC DF22B315
Track not present in AccurateRip database
Copy OK
Track 7
Filename E:\MUSIC\My Music\Puccini - Turandot - Bocelli\Turandot - Bocelli - Metha - CD 1\CD\07 Non piangere , Liu.wav
Peak level 100.0 %
Extraction speed 2.6 X
Track quality 99.9 %
Test CRC F61B37A9
Copy CRC F61B37A9
Track not present in AccurateRip database
Copy OK
Track 8
Filename E:\MUSIC\My Music\Puccini - Turandot - Bocelli\Turandot - Bocelli - Metha - CD 1\CD\08 Ola, Pang , Ola , Pong.wav
Peak level 97.6 %
Extraction speed 3.1 X
Track quality 100.0 %
Test CRC B6FE89C6
Copy CRC B6FE89C6
Track not present in AccurateRip database
Copy OK
Track 9
Filename E:\MUSIC\My Music\Puccini - Turandot - Bocelli\Turandot - Bocelli - Metha - CD 1\CD\09 Ho una casa nell´Honan.wav
Peak level 97.6 %
Extraction speed 3.2 X
Track quality 100.0 %
Test CRC B1FA3ED6
Copy CRC B1FA3ED6
Track not present in AccurateRip database
Copy OK
Track 10
Filename E:\MUSIC\My Music\Puccini - Turandot - Bocelli\Turandot - Bocelli - Metha - CD 1\CD\10 O mondo , o mondo.wav
Peak level 97.6 %
Extraction speed 3.4 X
Track quality 100.0 %
Test CRC 31A9A0A0
Copy CRC 31A9A0A0
Track not present in AccurateRip database
Copy OK
Track 11
Filename E:\MUSIC\My Music\Puccini - Turandot - Bocelli\Turandot - Bocelli - Metha - CD 1\CD\11 Introduzione.wav
Peak level 98.1 %
Extraction speed 2.5 X
Track quality 100.0 %
Test CRC 58D1DA85
Copy CRC 58D1DA85
Track not present in AccurateRip database
Copy OK
Track 12
Filename E:\MUSIC\My Music\Puccini - Turandot - Bocelli\Turandot - Bocelli - Metha - CD 1\CD\12 Gravi , enorme ed inpotenti.wav
Peak level 97.9 %
Extraction speed 3.4 X
Track quality 100.0 %
Test CRC 8A2BFE92
Copy CRC 8A2BFE92
Track not present in AccurateRip database
Copy OK
Track 13
Filename E:\MUSIC\My Music\Puccini - Turandot - Bocelli\Turandot - Bocelli - Metha - CD 1\CD\13 Un giuramento atroce mi costringe.wav
Peak level 97.6 %
Extraction speed 3.5 X
Track quality 100.0 %
Test CRC B8B8916A
Copy CRC B8B8916A
Track not present in AccurateRip database
Copy OK
Track 14
Filename E:\MUSIC\My Music\Puccini - Turandot - Bocelli\Turandot - Bocelli - Metha - CD 1\CD\14 Popolo di Pekino.wav
Peak level 97.7 %
Extraction speed 3.0 X
Track quality 100.0 %
Test CRC C2963ACE
Copy CRC C2963ACE
Track not present in AccurateRip database
Copy OK
None of the tracks are present in the AccurateRip database
No errors occurred
End of status report
==== Log checksum 8713F5AE23B0D79CCBB725A67D69CF5F928DFFCB9AE060F4DCAB92571136D128 ====
------------------------------------------------------------
Exact Audio Copy V1.0 beta 3 from 29. August 2011
EAC extraction logfile from 1. August 2015, 16:48
Andrea Bocelli - Jennifer Wilson / Puccini - Turandot - CD 1
Used drive : SONY DVD RW DRU-840A Adapter: 0 ID: 1
Read mode : Secure
Utilize accurate stream : Yes
Defeat audio cache : Yes
Make use of C2 pointers : No
Read offset correction : 6
Overread into Lead-In and Lead-Out : No
Fill up missing offset samples with silence : Yes
Delete leading and trailing silent blocks : No
Null samples used in CRC calculations : Yes
Used interface : Native Win32 interface for Win NT & 2000
Gap handling : Not detected, thus appended to previous track
Used output format : User Defined Encoder
Selected bitrate : 320 kBit/s
Quality : High
Add ID3 tag : No
Command line compressor : C:\Archivos de programa\Exact Audio Copy\FLAC\FLAC.EXE
Additional command line options : -6 -V -T "ARTIST=%artist%" -T "TITLE=%title%" -T "ALBUM=%albumtitle%" -T "DATE=%year%" -T "TRACKNUMBER=%tracknr%" -T "GENRE=%genre%" -T "COMMENT=%comment%" -T "BAND=%albuminterpret%" -T "ALBUMARTIST=%albuminterpret%" -T "COMPOSER=%composer%" %haslyrics%--tag-from-file=LYRICS="%lyricsfile%"%haslyrics% -T "DISCNUMBER=%cdnumber%" -T "TOTALDISCS=%totalcds%" -T "TOTALTRACKS=%numtracks%" %hascover%--picture="%coverfile%"%hascover% %source% -o %dest%
TOC of the extracted CD
Track | Start | Length | Start sector | End sector
---------------------------------------------------------
1 | 0:00.00 | 5:41.50 | 0 | 25624
2 | 5:41.50 | 7:17.46 | 25625 | 58445
3 | 12:59.21 | 4:57.59 | 58446 | 80779
4 | 17:57.05 | 1:35.03 | 80780 | 87907
5 | 19:32.08 | 6:11.08 | 87908 | 115740
6 | 25:43.16 | 2:30.71 | 115741 | 127061
7 | 28:14.12 | 5:21.01 | 127062 | 151137
8 | 33:35.13 | 3:43.50 | 151138 | 167912
9 | 37:18.63 | 3:39.29 | 167913 | 184366
10 | 40:58.17 | 4:34.10 | 184367 | 204926
11 | 45:32.27 | 1:05.11 | 204927 | 209812
12 | 46:37.38 | 3:18.72 | 209813 | 224734
13 | 49:56.35 | 3:25.65 | 224735 | 240174
14 | 53:22.25 | 1:40.34 | 240175 | 247708
Track 1
Filename E:\MUSIC\My Music\Puccini - Turandot - Bocelli\Turandot - Bocelli - Metha - CD 1\CD\01 Popolo de Pekino.wav
Peak level 97.7 %
Extraction speed 2.0 X
Track quality 100.0 %
Test CRC 97EC7F54
Copy CRC 97EC7F54
Track not present in AccurateRip database
Copy OK
Track 2
Filename E:\MUSIC\My Music\Puccini - Turandot - Bocelli\Turandot - Bocelli - Metha - CD 1\CD\02 Gira la cote.wav
Peak level 97.7 %
Extraction speed 2.4 X
Track quality 100.0 %
Test CRC B574B2A9
Copy CRC B574B2A9
Track not present in AccurateRip database
Copy OK
Track 3
Filename E:\MUSIC\My Music\Puccini - Turandot - Bocelli\Turandot - Bocelli - Metha - CD 1\CD\03 O giovinetto , grazia , grazia.wav
Peak level 98.0 %
Extraction speed 2.2 X
Track quality 99.9 %
Test CRC F3342024
Copy CRC F3342024
Track not present in AccurateRip database
Copy OK
Track 4
Filename E:\MUSIC\My Music\Puccini - Turandot - Bocelli\Turandot - Bocelli - Metha - CD 1\CD\04 Figlio , che fai.wav
Peak level 97.7 %
Extraction speed 2.1 X
Track quality 100.0 %
Test CRC 2771A4BE
Copy CRC 2771A4BE
Track not present in AccurateRip database
Copy OK
Track 5
Filename E:\MUSIC\My Music\Puccini - Turandot - Bocelli\Turandot - Bocelli - Metha - CD 1\CD\05 Fermo , che fai , t´arresta.wav
Peak level 100.0 %
Extraction speed 2.9 X
Track quality 100.0 %
Test CRC C4801501
Copy CRC C4801501
Track not present in AccurateRip database
Copy OK
Track 6
Filename E:\MUSIC\My Music\Puccini - Turandot - Bocelli\Turandot - Bocelli - Metha - CD 1\CD\06 Signore , ascolta.wav
Peak level 97.6 %
Extraction speed 2.7 X
Track quality 100.0 %
Test CRC DF22B315
Copy CRC DF22B315
Track not present in AccurateRip database
Copy OK
Track 7
Filename E:\MUSIC\My Music\Puccini - Turandot - Bocelli\Turandot - Bocelli - Metha - CD 1\CD\07 Non piangere , Liu.wav
Peak level 100.0 %
Extraction speed 2.6 X
Track quality 99.9 %
Test CRC F61B37A9
Copy CRC F61B37A9
Track not present in AccurateRip database
Copy OK
Track 8
Filename E:\MUSIC\My Music\Puccini - Turandot - Bocelli\Turandot - Bocelli - Metha - CD 1\CD\08 Ola, Pang , Ola , Pong.wav
Peak level 97.6 %
Extraction speed 3.1 X
Track quality 100.0 %
Test CRC B6FE89C6
Copy CRC B6FE89C6
Track not present in AccurateRip database
Copy OK
Track 9
Filename E:\MUSIC\My Music\Puccini - Turandot - Bocelli\Turandot - Bocelli - Metha - CD 1\CD\09 Ho una casa nell´Honan.wav
Peak level 97.6 %
Extraction speed 3.2 X
Track quality 100.0 %
Test CRC B1FA3ED6
Copy CRC B1FA3ED6
Track not present in AccurateRip database
Copy OK
Track 10
Filename E:\MUSIC\My Music\Puccini - Turandot - Bocelli\Turandot - Bocelli - Metha - CD 1\CD\10 O mondo , o mondo.wav
Peak level 97.6 %
Extraction speed 3.4 X
Track quality 100.0 %
Test CRC 31A9A0A0
Copy CRC 31A9A0A0
Track not present in AccurateRip database
Copy OK
Track 11
Filename E:\MUSIC\My Music\Puccini - Turandot - Bocelli\Turandot - Bocelli - Metha - CD 1\CD\11 Introduzione.wav
Peak level 98.1 %
Extraction speed 2.5 X
Track quality 100.0 %
Test CRC 58D1DA85
Copy CRC 58D1DA85
Track not present in AccurateRip database
Copy OK
Track 12
Filename E:\MUSIC\My Music\Puccini - Turandot - Bocelli\Turandot - Bocelli - Metha - CD 1\CD\12 Gravi , enorme ed inpotenti.wav
Peak level 97.9 %
Extraction speed 3.4 X
Track quality 100.0 %
Test CRC 8A2BFE92
Copy CRC 8A2BFE92
Track not present in AccurateRip database
Copy OK
Track 13
Filename E:\MUSIC\My Music\Puccini - Turandot - Bocelli\Turandot - Bocelli - Metha - CD 1\CD\13 Un giuramento atroce mi costringe.wav
Peak level 97.6 %
Extraction speed 3.5 X
Track quality 100.0 %
Test CRC B8B8916A
Copy CRC B8B8916A
Track not present in AccurateRip database
Copy OK
Track 14
Filename E:\MUSIC\My Music\Puccini - Turandot - Bocelli\Turandot - Bocelli - Metha - CD 1\CD\14 Popolo di Pekino.wav
Peak level 97.7 %
Extraction speed 3.0 X
Track quality 100.0 %
Test CRC C2963ACE
Copy CRC C2963ACE
Track not present in AccurateRip database
Copy OK
None of the tracks are present in the AccurateRip database
No errors occurred
End of status report
==== Log checksum 8713F5AE23B0D79CCBB725A67D69CF5F928DFFCB9AE060F4DCAB92571136D128 ====
CD2

скрытый текст

Exact Audio Copy V1.0 beta 3 from 29. August 2011
EAC extraction logfile from 2. August 2015, 10:06
Andrea Bocelli - Jennifer Wilson / Puccini - Turandot - CD 2
Used drive : SONY DVD RW DRU-840A Adapter: 0 ID: 1
Read mode : Secure
Utilize accurate stream : Yes
Defeat audio cache : Yes
Make use of C2 pointers : No
Read offset correction : 6
Overread into Lead-In and Lead-Out : No
Fill up missing offset samples with silence : Yes
Delete leading and trailing silent blocks : No
Null samples used in CRC calculations : Yes
Used interface : Native Win32 interface for Win NT & 2000
Gap handling : Not detected, thus appended to previous track
Used output format : User Defined Encoder
Selected bitrate : 320 kBit/s
Quality : High
Add ID3 tag : No
Command line compressor : C:\Archivos de programa\Exact Audio Copy\FLAC\FLAC.EXE
Additional command line options : -6 -V -T "ARTIST=%artist%" -T "TITLE=%title%" -T "ALBUM=%albumtitle%" -T "DATE=%year%" -T "TRACKNUMBER=%tracknr%" -T "GENRE=%genre%" -T "COMMENT=%comment%" -T "BAND=%albuminterpret%" -T "ALBUMARTIST=%albuminterpret%" -T "COMPOSER=%composer%" %haslyrics%--tag-from-file=LYRICS="%lyricsfile%"%haslyrics% -T "DISCNUMBER=%cdnumber%" -T "TOTALDISCS=%totalcds%" -T "TOTALTRACKS=%numtracks%" %hascover%--picture="%coverfile%"%hascover% %source% -o %dest%
TOC of the extracted CD
Track | Start | Length | Start sector | End sector
---------------------------------------------------------
1 | 0:00.00 | 6:09.58 | 0 | 27732
2 | 6:09.58 | 6:45.70 | 27733 | 58177
3 | 12:55.53 | 4:26.14 | 58178 | 78141
4 | 17:21.67 | 4:02.29 | 78142 | 96320
5 | 21:24.21 | 3:39.45 | 96321 | 112790
6 | 25:03.66 | 7:13.18 | 112791 | 145283
7 | 32:17.09 | 7:36.20 | 145284 | 179503
8 | 39:53.29 | 2:55.15 | 179504 | 192643
9 | 42:48.44 | 4:45.19 | 192644 | 214037
10 | 47:33.63 | 3:14.68 | 214038 | 228655
11 | 50:48.56 | 2:56.21 | 228656 | 241876
12 | 53:45.02 | 3:40.16 | 241877 | 258392
13 | 57:25.18 | 2:10.05 | 258393 | 268147
14 | 59:35.23 | 2:24.32 | 268148 | 278979
Track 1
Filename E:\MUSIC\My Music\Puccini - Turandot - Bocelli\Turandot - Bocelli - Metha - CD 2\CD\01 In questa reggia.wav
Peak level 97.8 %
Extraction speed 1.9 X
Track quality 99.9 %
Test CRC 340C5CFB
Copy CRC 340C5CFB
Track not present in AccurateRip database
Copy OK
Track 2
Filename E:\MUSIC\My Music\Puccini - Turandot - Bocelli\Turandot - Bocelli - Metha - CD 2\CD\02 Straniero ascolta.wav
Peak level 97.8 %
Extraction speed 2.2 X
Track quality 99.9 %
Test CRC 050382FC
Copy CRC 050382FC
Track not present in AccurateRip database
Copy OK
Track 3
Filename E:\MUSIC\My Music\Puccini - Turandot - Bocelli\Turandot - Bocelli - Metha - CD 2\CD\03 Gloria , gloria , o vincitore.wav
Peak level 97.7 %
Extraction speed 2.5 X
Track quality 100.0 %
Test CRC A66ABE31
Copy CRC A66ABE31
Track not present in AccurateRip database
Copy OK
Track 4
Filename E:\MUSIC\My Music\Puccini - Turandot - Bocelli\Turandot - Bocelli - Metha - CD 2\CD\04 Tre enigmi m´hai proposto.wav
Peak level 98.7 %
Extraction speed 2.6 X
Track quality 100.0 %
Test CRC 949BE6C9
Copy CRC 949BE6C9
Track not present in AccurateRip database
Copy OK
Track 5
Filename E:\MUSIC\My Music\Puccini - Turandot - Bocelli\Turandot - Bocelli - Metha - CD 2\CD\05 Introduzione - Cosi comanda Turandot.wav
Peak level 88.3 %
Extraction speed 2.7 X
Track quality 100.0 %
Test CRC 8F6E3D97
Copy CRC 8F6E3D97
Track not present in AccurateRip database
Copy OK
Track 6
Filename E:\MUSIC\My Music\Puccini - Turandot - Bocelli\Turandot - Bocelli - Metha - CD 2\CD\06 Nessun dorma !.wav
Peak level 97.6 %
Extraction speed 2.7 X
Track quality 99.9 %
Test CRC FE70ECF7
Copy CRC FE70ECF7
Track not present in AccurateRip database
Copy OK
Track 7
Filename E:\MUSIC\My Music\Puccini - Turandot - Bocelli\Turandot - Bocelli - Metha - CD 2\CD\07 Principessa divina !.wav
Peak level 97.6 %
Extraction speed 3.4 X
Track quality 100.0 %
Test CRC F1B523FD
Copy CRC F1B523FD
Track not present in AccurateRip database
Copy OK
Track 8
Filename E:\MUSIC\My Music\Puccini - Turandot - Bocelli\Turandot - Bocelli - Metha - CD 2\CD\08 Tu che di gel sei cinta.wav
Peak level 97.6 %
Extraction speed 3.1 X
Track quality 100.0 %
Test CRC 60B7254D
Copy CRC 60B7254D
Track not present in AccurateRip database
Copy OK
Track 9
Filename E:\MUSIC\My Music\Puccini - Turandot - Bocelli\Turandot - Bocelli - Metha - CD 2\CD\09 Liu , Liu , sorgi , sorgi.wav
Peak level 97.6 %
Extraction speed 3.5 X
Track quality 100.0 %
Test CRC 1C273591
Copy CRC 1C273591
Track not present in AccurateRip database
Copy OK
Track 10
Filename E:\MUSIC\My Music\Puccini - Turandot - Bocelli\Turandot - Bocelli - Metha - CD 2\CD\10 Principessa di morte.wav
Peak level 97.6 %
Extraction speed 3.3 X
Track quality 100.0 %
Test CRC DB29CEB1
Copy CRC DB29CEB1
Track not present in AccurateRip database
Copy OK
Track 11
Filename E:\MUSIC\My Music\Puccini - Turandot - Bocelli\Turandot - Bocelli - Metha - CD 2\CD\11 Che e mai di me.wav
Peak level 97.5 %
Extraction speed 2.3 X
Track quality 99.9 %
Test CRC AB6E7005
Copy CRC AB6E7005
Track not present in AccurateRip database
Copy OK
Track 12
Filename E:\MUSIC\My Music\Puccini - Turandot - Bocelli\Turandot - Bocelli - Metha - CD 2\CD\12 Del primo pianto.wav
Peak level 97.6 %
Extraction speed 3.5 X
Track quality 100.0 %
Test CRC 01E0D277
Copy CRC 01E0D277
Track not present in AccurateRip database
Copy OK
Track 13
Filename E:\MUSIC\My Music\Puccini - Turandot - Bocelli\Turandot - Bocelli - Metha - CD 2\CD\13 So il tuo nome !.wav
Peak level 98.0 %
Extraction speed 3.3 X
Track quality 100.0 %
Test CRC D06B9B5D
Copy CRC D06B9B5D
Track not present in AccurateRip database
Copy OK
Track 14
Filename E:\MUSIC\My Music\Puccini - Turandot - Bocelli\Turandot - Bocelli - Metha - CD 2\CD\14 Diecimila anni al nostro Imperatore !.wav
Peak level 97.8 %
Extraction speed 2.1 X
Track quality 99.9 %
Test CRC BCEB82C0
Copy CRC BCEB82C0
Track not present in AccurateRip database
Copy OK
None of the tracks are present in the AccurateRip database
No errors occurred
End of status report
==== Log checksum E89EBBFA7148E15C6CC04AA05809567C343E96395952C5D9C2C361198C88B41F ====
------------------------------------------------------------
Exact Audio Copy V1.0 beta 3 from 29. August 2011
EAC extraction logfile from 2. August 2015, 10:06
Andrea Bocelli - Jennifer Wilson / Puccini - Turandot - CD 2
Used drive : SONY DVD RW DRU-840A Adapter: 0 ID: 1
Read mode : Secure
Utilize accurate stream : Yes
Defeat audio cache : Yes
Make use of C2 pointers : No
Read offset correction : 6
Overread into Lead-In and Lead-Out : No
Fill up missing offset samples with silence : Yes
Delete leading and trailing silent blocks : No
Null samples used in CRC calculations : Yes
Used interface : Native Win32 interface for Win NT & 2000
Gap handling : Not detected, thus appended to previous track
Used output format : User Defined Encoder
Selected bitrate : 320 kBit/s
Quality : High
Add ID3 tag : No
Command line compressor : C:\Archivos de programa\Exact Audio Copy\FLAC\FLAC.EXE
Additional command line options : -6 -V -T "ARTIST=%artist%" -T "TITLE=%title%" -T "ALBUM=%albumtitle%" -T "DATE=%year%" -T "TRACKNUMBER=%tracknr%" -T "GENRE=%genre%" -T "COMMENT=%comment%" -T "BAND=%albuminterpret%" -T "ALBUMARTIST=%albuminterpret%" -T "COMPOSER=%composer%" %haslyrics%--tag-from-file=LYRICS="%lyricsfile%"%haslyrics% -T "DISCNUMBER=%cdnumber%" -T "TOTALDISCS=%totalcds%" -T "TOTALTRACKS=%numtracks%" %hascover%--picture="%coverfile%"%hascover% %source% -o %dest%
TOC of the extracted CD
Track | Start | Length | Start sector | End sector
---------------------------------------------------------
1 | 0:00.00 | 6:09.58 | 0 | 27732
2 | 6:09.58 | 6:45.70 | 27733 | 58177
3 | 12:55.53 | 4:26.14 | 58178 | 78141
4 | 17:21.67 | 4:02.29 | 78142 | 96320
5 | 21:24.21 | 3:39.45 | 96321 | 112790
6 | 25:03.66 | 7:13.18 | 112791 | 145283
7 | 32:17.09 | 7:36.20 | 145284 | 179503
8 | 39:53.29 | 2:55.15 | 179504 | 192643
9 | 42:48.44 | 4:45.19 | 192644 | 214037
10 | 47:33.63 | 3:14.68 | 214038 | 228655
11 | 50:48.56 | 2:56.21 | 228656 | 241876
12 | 53:45.02 | 3:40.16 | 241877 | 258392
13 | 57:25.18 | 2:10.05 | 258393 | 268147
14 | 59:35.23 | 2:24.32 | 268148 | 278979
Track 1
Filename E:\MUSIC\My Music\Puccini - Turandot - Bocelli\Turandot - Bocelli - Metha - CD 2\CD\01 In questa reggia.wav
Peak level 97.8 %
Extraction speed 1.9 X
Track quality 99.9 %
Test CRC 340C5CFB
Copy CRC 340C5CFB
Track not present in AccurateRip database
Copy OK
Track 2
Filename E:\MUSIC\My Music\Puccini - Turandot - Bocelli\Turandot - Bocelli - Metha - CD 2\CD\02 Straniero ascolta.wav
Peak level 97.8 %
Extraction speed 2.2 X
Track quality 99.9 %
Test CRC 050382FC
Copy CRC 050382FC
Track not present in AccurateRip database
Copy OK
Track 3
Filename E:\MUSIC\My Music\Puccini - Turandot - Bocelli\Turandot - Bocelli - Metha - CD 2\CD\03 Gloria , gloria , o vincitore.wav
Peak level 97.7 %
Extraction speed 2.5 X
Track quality 100.0 %
Test CRC A66ABE31
Copy CRC A66ABE31
Track not present in AccurateRip database
Copy OK
Track 4
Filename E:\MUSIC\My Music\Puccini - Turandot - Bocelli\Turandot - Bocelli - Metha - CD 2\CD\04 Tre enigmi m´hai proposto.wav
Peak level 98.7 %
Extraction speed 2.6 X
Track quality 100.0 %
Test CRC 949BE6C9
Copy CRC 949BE6C9
Track not present in AccurateRip database
Copy OK
Track 5
Filename E:\MUSIC\My Music\Puccini - Turandot - Bocelli\Turandot - Bocelli - Metha - CD 2\CD\05 Introduzione - Cosi comanda Turandot.wav
Peak level 88.3 %
Extraction speed 2.7 X
Track quality 100.0 %
Test CRC 8F6E3D97
Copy CRC 8F6E3D97
Track not present in AccurateRip database
Copy OK
Track 6
Filename E:\MUSIC\My Music\Puccini - Turandot - Bocelli\Turandot - Bocelli - Metha - CD 2\CD\06 Nessun dorma !.wav
Peak level 97.6 %
Extraction speed 2.7 X
Track quality 99.9 %
Test CRC FE70ECF7
Copy CRC FE70ECF7
Track not present in AccurateRip database
Copy OK
Track 7
Filename E:\MUSIC\My Music\Puccini - Turandot - Bocelli\Turandot - Bocelli - Metha - CD 2\CD\07 Principessa divina !.wav
Peak level 97.6 %
Extraction speed 3.4 X
Track quality 100.0 %
Test CRC F1B523FD
Copy CRC F1B523FD
Track not present in AccurateRip database
Copy OK
Track 8
Filename E:\MUSIC\My Music\Puccini - Turandot - Bocelli\Turandot - Bocelli - Metha - CD 2\CD\08 Tu che di gel sei cinta.wav
Peak level 97.6 %
Extraction speed 3.1 X
Track quality 100.0 %
Test CRC 60B7254D
Copy CRC 60B7254D
Track not present in AccurateRip database
Copy OK
Track 9
Filename E:\MUSIC\My Music\Puccini - Turandot - Bocelli\Turandot - Bocelli - Metha - CD 2\CD\09 Liu , Liu , sorgi , sorgi.wav
Peak level 97.6 %
Extraction speed 3.5 X
Track quality 100.0 %
Test CRC 1C273591
Copy CRC 1C273591
Track not present in AccurateRip database
Copy OK
Track 10
Filename E:\MUSIC\My Music\Puccini - Turandot - Bocelli\Turandot - Bocelli - Metha - CD 2\CD\10 Principessa di morte.wav
Peak level 97.6 %
Extraction speed 3.3 X
Track quality 100.0 %
Test CRC DB29CEB1
Copy CRC DB29CEB1
Track not present in AccurateRip database
Copy OK
Track 11
Filename E:\MUSIC\My Music\Puccini - Turandot - Bocelli\Turandot - Bocelli - Metha - CD 2\CD\11 Che e mai di me.wav
Peak level 97.5 %
Extraction speed 2.3 X
Track quality 99.9 %
Test CRC AB6E7005
Copy CRC AB6E7005
Track not present in AccurateRip database
Copy OK
Track 12
Filename E:\MUSIC\My Music\Puccini - Turandot - Bocelli\Turandot - Bocelli - Metha - CD 2\CD\12 Del primo pianto.wav
Peak level 97.6 %
Extraction speed 3.5 X
Track quality 100.0 %
Test CRC 01E0D277
Copy CRC 01E0D277
Track not present in AccurateRip database
Copy OK
Track 13
Filename E:\MUSIC\My Music\Puccini - Turandot - Bocelli\Turandot - Bocelli - Metha - CD 2\CD\13 So il tuo nome !.wav
Peak level 98.0 %
Extraction speed 3.3 X
Track quality 100.0 %
Test CRC D06B9B5D
Copy CRC D06B9B5D
Track not present in AccurateRip database
Copy OK
Track 14
Filename E:\MUSIC\My Music\Puccini - Turandot - Bocelli\Turandot - Bocelli - Metha - CD 2\CD\14 Diecimila anni al nostro Imperatore !.wav
Peak level 97.8 %
Extraction speed 2.1 X
Track quality 99.9 %
Test CRC BCEB82C0
Copy CRC BCEB82C0
Track not present in AccurateRip database
Copy OK
None of the tracks are present in the AccurateRip database
No errors occurred
End of status report
==== Log checksum E89EBBFA7148E15C6CC04AA05809567C343E96395952C5D9C2C361198C88B41F ====
Содержание индексной карты (.CUE)
CD1

скрытый текст

FILE "01 - Puccini - Turandot - Act 1 - Popoli di Pekino!.flac" FLAC
REM FILE-DECODED-SIZE 05:41:50
TRACK 01 AUDIO
TITLE "01 - Puccini - Turandot - Act 1 - Popoli di Pekino!"
INDEX 01 00:00:00
FILE "02 - Puccini - Turandot - Act 1 - Gira la cote!.flac" FLAC
REM FILE-DECODED-SIZE 07:17:46
TRACK 02 AUDIO
TITLE "02 - Puccini - Turandot - Act 1 - Gira la cote!"
INDEX 01 00:00:00
FILE "03 - Puccini - Turandot - Act 1 - O giovinetto! Grazia, grazia!.flac" FLAC
REM FILE-DECODED-SIZE 04:57:59
TRACK 03 AUDIO
TITLE "03 - Puccini - Turandot - Act 1 - O giovinetto! Grazia, grazia!"
INDEX 01 00:00:00
FILE "04 - Puccini - Turandot - Act 1 - Figlio, che fai.flac" FLAC
REM FILE-DECODED-SIZE 01:35:03
TRACK 04 AUDIO
TITLE "04 - Puccini - Turandot - Act 1 - Figlio, che fai"
INDEX 01 00:00:00
FILE "05 - Puccini - Turandot - Act 1 - Fermo! Che fai T'arresta.flac" FLAC
REM FILE-DECODED-SIZE 06:11:08
TRACK 05 AUDIO
TITLE "05 - Puccini - Turandot - Act 1 - Fermo! Che fai T'arresta"
INDEX 01 00:00:00
FILE "06 - Puccini - Turandot - Act 1 - Signore, ascolta.flac" FLAC
REM FILE-DECODED-SIZE 02:30:71
TRACK 06 AUDIO
TITLE "06 - Puccini - Turandot - Act 1 - Signore, ascolta"
INDEX 01 00:00:00
FILE "07 - Puccini - Turandot - Act 1 - Non piangere Liu.flac" FLAC
REM FILE-DECODED-SIZE 05:21:01
TRACK 07 AUDIO
TITLE "07 - Puccini - Turandot - Act 1 - Non piangere Liu"
INDEX 01 00:00:00
FILE "08 - Puccini - Turandot - Act 2 - Ola, Pang! Ola, Pong!.flac" FLAC
REM FILE-DECODED-SIZE 03:43:50
TRACK 08 AUDIO
TITLE "08 - Puccini - Turandot - Act 2 - Ola, Pang! Ola, Pong!"
INDEX 01 00:00:00
FILE "09 - Puccini - Turandot - Act 2 - Ho una casa nell'Honan.flac" FLAC
REM FILE-DECODED-SIZE 03:39:29
TRACK 09 AUDIO
TITLE "09 - Puccini - Turandot - Act 2 - Ho una casa nell'Honan"
INDEX 01 00:00:00
FILE "10 - Puccini - Turandot - Act 2 - O mondo, O mondo.flac" FLAC
REM FILE-DECODED-SIZE 04:34:10
TRACK 10 AUDIO
TITLE "10 - Puccini - Turandot - Act 2 - O mondo, O mondo"
INDEX 01 00:00:00
FILE "11 - Puccini - Turandot - Act 2 - Introduzione (Scene 2).flac" FLAC
REM FILE-DECODED-SIZE 01:05:11
TRACK 11 AUDIO
TITLE "11 - Puccini - Turandot - Act 2 - Introduzione (Scene 2)"
INDEX 01 00:00:00
FILE "12 - Puccini - Turandot - Act 2 - Gravi, enormi ed impotenti.flac" FLAC
REM FILE-DECODED-SIZE 03:18:72
TRACK 12 AUDIO
TITLE "12 - Puccini - Turandot - Act 2 - Gravi, enormi ed impotenti"
INDEX 01 00:00:00
FILE "13 - Puccini - Turandot - Act 2 - Un giuramento atroce mi costringe.flac" FLAC
REM FILE-DECODED-SIZE 03:25:65
TRACK 13 AUDIO
TITLE "13 - Puccini - Turandot - Act 2 - Un giuramento atroce mi costringe"
INDEX 01 00:00:00
FILE "14 - Puccini - Turandot - Act 2 - Popolo di Pekino.flac" FLAC
REM FILE-DECODED-SIZE 01:40:34
TRACK 14 AUDIO
TITLE "14 - Puccini - Turandot - Act 2 - Popolo di Pekino"
INDEX 01 00:00:00
CD2

скрытый текст

FILE "01 - Puccini - Turandot - Act 2 - In questa reggia.flac" FLAC
REM FILE-DECODED-SIZE 06:09:58
TRACK 01 AUDIO
TITLE "01 - Puccini - Turandot - Act 2 - In questa reggia"
INDEX 01 00:00:00
FILE "02 - Puccini - Turandot - Act 2 - Straniero, ascolta.flac" FLAC
REM FILE-DECODED-SIZE 06:45:70
TRACK 02 AUDIO
TITLE "02 - Puccini - Turandot - Act 2 - Straniero, ascolta"
INDEX 01 00:00:00
FILE "03 - Puccini - Turandot - Act 2 - Gloria, gloria, o vincitore.flac" FLAC
REM FILE-DECODED-SIZE 04:26:14
TRACK 03 AUDIO
TITLE "03 - Puccini - Turandot - Act 2 - Gloria, gloria, o vincitore"
INDEX 01 00:00:00
FILE "04 - Puccini - Turandot - Act 2 - Tre enigmi m'hai proposto.flac" FLAC
REM FILE-DECODED-SIZE 04:02:29
TRACK 04 AUDIO
TITLE "04 - Puccini - Turandot - Act 2 - Tre enigmi m'hai proposto"
INDEX 01 00:00:00
FILE "05 - Puccini - Turandot - Act 3 - Introduzione - Cosi comanda Turandot.flac" FLAC
REM FILE-DECODED-SIZE 03:39:45
TRACK 05 AUDIO
TITLE "05 - Puccini - Turandot - Act 3 - Introduzione - Cosi comanda Turandot"
INDEX 01 00:00:00
FILE "06 - Puccini - Turandot - Act 3 - Nessun dorma!.flac" FLAC
REM FILE-DECODED-SIZE 07:13:18
TRACK 06 AUDIO
TITLE "06 - Puccini - Turandot - Act 3 - Nessun dorma!"
INDEX 01 00:00:00
FILE "07 - Puccini - Turandot - Act 3 - Principessa divina!.flac" FLAC
REM FILE-DECODED-SIZE 07:36:20
TRACK 07 AUDIO
TITLE "07 - Puccini - Turandot - Act 3 - Principessa divina!"
INDEX 01 00:00:00
FILE "08 - Puccini - Turandot - Act 3 - Tu che di gel sei cinta.flac" FLAC
REM FILE-DECODED-SIZE 02:55:15
TRACK 08 AUDIO
TITLE "08 - Puccini - Turandot - Act 3 - Tu che di gel sei cinta"
INDEX 01 00:00:00
FILE "09 - Puccini - Turandot - Act 3 - Liu! Liu! Sorgi! Sorgi!.flac" FLAC
REM FILE-DECODED-SIZE 04:45:19
TRACK 09 AUDIO
TITLE "09 - Puccini - Turandot - Act 3 - Liu! Liu! Sorgi! Sorgi!"
INDEX 01 00:00:00
FILE "10 - Puccini - Turandot - Act 3 - Principessa di morte!.flac" FLAC
REM FILE-DECODED-SIZE 03:14:68
TRACK 10 AUDIO
TITLE "10 - Puccini - Turandot - Act 3 - Principessa di morte!"
INDEX 01 00:00:00
FILE "11 - Puccini - Turandot - Act 3 - Che e mai di me.flac" FLAC
REM FILE-DECODED-SIZE 02:56:21
TRACK 11 AUDIO
TITLE "11 - Puccini - Turandot - Act 3 - Che e mai di me"
INDEX 01 00:00:00
FILE "12 - Puccini - Turandot - Act 3 - Del primo pianto.flac" FLAC
REM FILE-DECODED-SIZE 03:40:16
TRACK 12 AUDIO
TITLE "12 - Puccini - Turandot - Act 3 - Del primo pianto"
INDEX 01 00:00:00
FILE "13 - Puccini - Turandot - Act 3 - So il tuo nome!.flac" FLAC
REM FILE-DECODED-SIZE 02:10:05
TRACK 13 AUDIO
TITLE "13 - Puccini - Turandot - Act 3 - So il tuo nome!"
INDEX 01 00:00:00
FILE "14 - Puccini - Turandot - Act 3 - Diecimilia anni al nostro Imperatore!.flac" FLAC
REM FILE-DECODED-SIZE 02:24:32
TRACK 14 AUDIO
TITLE "14 - Puccini - Turandot - Act 3 - Diecimilia anni al nostro Imperatore!"
INDEX 01 00:00:00



Показать сообщения:    

Текущее время: 09-Дек 20:32

Часовой пояс: UTC + 3


Вы не можете начинать темы
Вы не можете отвечать на сообщения
Вы не можете редактировать свои сообщения
Вы не можете удалять свои сообщения
Вы не можете голосовать в опросах
Вы не можете прикреплять файлы к сообщениям
Вы не можете скачивать файлы