(Renaissance) Emilio de' Cavalieri: Lamentations (Le Poeme Harmonique, dir. Vincent Dumestre) - 2001, WavPack (image+.cue) lossless


 

[Цитировать]

Emilio de' Cavalieri
(circa 1550 - 1602)
Lamentations
Le Poème Harmonique
Vincent Dumestre
Жанр: Renaissance
Страна-производитель диска: EU
Год издания диска: 2001
Издатель (лейбл): Alpha
Номер по каталогу: Alpha 011
Дата записи: May 2000
Аудиокодек: WavPack
Тип рипа: image+.cue
Битрейт аудио: lossless
Продолжительность: 62:43
Источник: собственный рип
Наличие сканов в содержимом раздачи: да

Треклист

01. In te Domine speravi (anonyme) [11:17]
Prima die. Lectio prima
02. Incipit [0:41]
03. Aleph [1:51]
04. Quomodo sedet sola [1:12]
05. Beth [1:13]
06. Plorans ploravit [1:45]
07. Gimel [0:51]
08. Migravit judas [0:49]
09. Daleth [1:26]
10. Viae Sion lugent [2:00]
11. Hierusalem convertere ad dominum tuum [0:52]
12. Repons : Eram quasi agnus [2:34]
13. Ricercar XIX - (Paolo Quagliati) [6:38]
Prime die. Lectio secunda
14. Vau [0:59]
15. Et egressus est [0:31]
16. Zaïn [0:56]
17. Recordata est Hierusalem [0:49]
18. Heth [0:22]
19. Peccatum peccavit Hierusalem [1:00]
20. Hierusalem convertere ad dominum tuum [0:53]
21. Repons : Una hora [1:43]
Secunda die. Lectio prima
22. De lamentatione [0:32]
23. Heth [0:37]
24. Cogitavit Dominus [0:41]
25. Caph [0:36]
26. Defecerunt [1:49]
27. Hierusalem convertere ad dominum tuum [1:17]
28. Repons : Caligaverunt oculi mei [2:41]
29. Miserere mei, Deus (Fabrizio Dentice) [14:08]

Исполнители

Le Poème Harmonique
Vincent Dumestre
Claire Lefilliâtre: dessus
Raphaële Kennedy: dessus
Damien Guillon: haute-contre
Jean-François Lombard: taille
François Piolino: taille
Arnaud Marzorati: basse-contre
Sophie Watillon: dessus de viole
Kaori Uemura: dessus de viole
Sylvie Moquet: basse de viole
Anne-Marie Lasla: basse de viole
Françoise Enock: violone
Laurent Stewart: orgue
Nanja Breedijk: harpe double
Jean-Luc Tamby: cetterone
Vincent Dumestre: théorbe

log EAC

Exact Audio Copy V0.99 prebeta 5 from 4. May 2009
Отчёт EAC об извлечении, выполненном 29. июля 2015, 13:03
Le Poeme Harmonique / Emilio de' Cavalieri - Lamentations
Дисковод: PIONEER DVD-RW DVR-219L Adapter: 1 ID: 1
Режим чтения : Достоверность
Использование точного потока : Да
Отключение кэша аудио : Да
Использование указателей C2 : Нет
Коррекция смещения при чтении : 6
Способность читать области Lead-in и Lead-out : Нет
Заполнение пропущенных сэмплов тишиной : Да
Удаление блоков с тишиной в начале и конце : Нет
При вычислениях CRC использовались нулевые сэмплы : Да
Интерфейс : Встроенный Win32-интерфейс для Win NT/2000
Выходной формат : Внутренние WAV-операции
Формат сэмплов : 44.100 Гц; 16 бит; стерео
TOC извлечённого CD
Трек | Старт | Длительность | Начальный сектор | Конечный сектор
---------------------------------------------------------------------
1 | 0:00.00 | 11:17.25 | 0 | 50799
2 | 11:17.25 | 0:40.53 | 50800 | 53852
3 | 11:58.03 | 1:50.47 | 53853 | 62149
4 | 13:48.50 | 1:11.40 | 62150 | 67514
5 | 15:00.15 | 1:12.60 | 67515 | 72974
6 | 16:13.00 | 1:45.15 | 72975 | 80864
7 | 17:58.15 | 0:51.03 | 80865 | 84692
8 | 18:49.18 | 0:49.27 | 84693 | 88394
9 | 19:38.45 | 1:26.05 | 88395 | 94849
10 | 21:04.50 | 1:59.67 | 94850 | 103841
11 | 23:04.42 | 0:52.36 | 103842 | 107777
12 | 23:57.03 | 2:34.35 | 107778 | 119362
13 | 26:31.38 | 6:38.03 | 119363 | 149215
14 | 33:09.41 | 0:59.28 | 149216 | 153668
15 | 34:08.69 | 0:30.59 | 153669 | 155977
16 | 34:39.53 | 0:55.43 | 155978 | 160145
17 | 35:35.21 | 0:49.25 | 160146 | 163845
18 | 36:24.46 | 0:22.00 | 163846 | 165495
19 | 36:46.46 | 0:59.38 | 165496 | 169958
20 | 37:46.09 | 0:52.41 | 169959 | 173899
21 | 38:38.50 | 1:42.61 | 173900 | 181610
22 | 40:21.36 | 0:32.00 | 181611 | 184010
23 | 40:53.36 | 0:36.42 | 184011 | 186752
24 | 41:30.03 | 0:41.03 | 186753 | 189830
25 | 42:11.06 | 0:36.09 | 189831 | 192539
26 | 42:47.15 | 1:49.09 | 192540 | 200723
27 | 44:36.24 | 1:17.28 | 200724 | 206526
28 | 45:53.52 | 2:41.00 | 206527 | 218601
29 | 48:34.52 | 14:08.21 | 218602 | 282222
Характеристики диапазона извлечения и сообщения об ошибках
Выбранный диапазон
Имя файла C:\Documents and Settings\Agni\Мои документы\EAC\Le Poeme Harmonique - Emilio de' Cavalieri - Lamentations.wav
Пиковый уровень 98.8 %
Качество диапазона 99.9 %
CRC теста 6BA88C84
CRC копии 6BA88C84
Копирование... OK
Ошибок не произошло
AccurateRip: сводка
Трек 1 точное извлечение (доверие 6) [E09494A3]
Трек 2 точное извлечение (доверие 6) [0B2A8792]
Трек 3 точное извлечение (доверие 6) [14148100]
Трек 4 точное извлечение (доверие 6) [D0FA9D89]
Трек 5 точное извлечение (доверие 6) [CE9A6C1F]
Трек 6 точное извлечение (доверие 6) [6D50CE22]
Трек 7 точное извлечение (доверие 6) [96AC351B]
Трек 8 точное извлечение (доверие 6) [694AC5EB]
Трек 9 точное извлечение (доверие 6) [A6F22A8A]
Трек 10 точное извлечение (доверие 6) [A882FC5A]
Трек 11 точное извлечение (доверие 6) [59748E27]
Трек 12 точное извлечение (доверие 6) [9D04E035]
Трек 13 точное извлечение (доверие 6) [625B91B6]
Трек 14 точное извлечение (доверие 6) [088DCD7A]
Трек 15 точное извлечение (доверие 6) [435D92C0]
Трек 16 точное извлечение (доверие 6) [4002D2F7]
Трек 17 точное извлечение (доверие 6) [DF492BBD]
Трек 18 точное извлечение (доверие 6) [B65EB3C3]
Трек 19 точное извлечение (доверие 6) [CF9085A0]
Трек 20 точное извлечение (доверие 6) [80CE9CCD]
Трек 21 точное извлечение (доверие 6) [97030CD9]
Трек 22 точное извлечение (доверие 6) [0B5513E7]
Трек 23 точное извлечение (доверие 6) [1E8C6B67]
Трек 24 точное извлечение (доверие 5) [2391D1CD]
Трек 25 точное извлечение (доверие 5) [82A34CE2]
Трек 26 точное извлечение (доверие 5) [07B82081]
Трек 27 точное извлечение (доверие 5) [4F6FFB58]
Трек 28 точное извлечение (доверие 5) [03CF390F]
Трек 29 точное извлечение (доверие 6) [A5D9A8DA]
Все треки извлечены точно
Конец отчёта



Показать сообщения:    

Текущее время: 10-Дек 07:57

Часовой пояс: UTC + 3


Вы не можете начинать темы
Вы не можете отвечать на сообщения
Вы не можете редактировать свои сообщения
Вы не можете удалять свои сообщения
Вы не можете голосовать в опросах
Вы не можете прикреплять файлы к сообщениям
Вы не можете скачивать файлы