(Classical) Daniel Brel: Quatre chemins de melancolie (Le Poeme Harmonique, dir. Vincent Dumestre) - 2004, WavPack (image+.cue) lossless


 

[Цитировать]

Daniel Brel
(né en 1950)
Quatre chemins de mélancolie
Le Poème Harmonique
Vincent Dumestre
Жанр: Classical
Страна-производитель диска: EU
Год издания диска: 2004
Издатель (лейбл): Alpha
Номер по каталогу: Alpha 509
Дата записи: May 2003
Аудиокодек: WavPack
Тип рипа: image+.cue
Битрейт аудио: lossless
Продолжительность: 61:48
Источник: собственный рип
Наличие сканов в содержимом раздачи: да

Треклист

01. Soleil froid [5:17]
02. Nuit et Lune [7:45]
03. Parade [2:40]
04. Élégie [6:02]
05. Quatre chemins, pour deux violes de gambe [2:37]
06. Un bateau qui s'en va, pour bandonéon seul [5:25]
07. Petite valse [0:49]
08. Plume [1:17]
09. Les yeux dans les étoiles, pour viole de gambe seule [6:00]
10. Echos [2:25]
11. Éternelle jeunesse [2:36]
12. Hommage [3:01]
13. Dans un regard [2:23]
14. Mouette, pour bandonéon et théorbe [3:42]
15. Sous l'écorce [4:59]
16. Berceuse [4:50]

Исполнители

Daniel Brel: bandonéon
Le Poème Harmonique:
Kaori Uemura: dessus de viole
Martin Bauer: basse de viole
Sylvia Abramowicz: basse de viole
Isabelle Saint Yves: basse de viole
Vincent Dumestre: théorbe & direction

log EAC

Exact Audio Copy V0.99 prebeta 5 from 4. May 2009
Отчёт EAC об извлечении, выполненном 29. июля 2015, 18:56
Le Poeme Harmonique / Daniel Brel - Quatre chemins de melancolie
Дисковод: PIONEER DVD-RW DVR-219L Adapter: 1 ID: 1
Режим чтения : Достоверность
Использование точного потока : Да
Отключение кэша аудио : Да
Использование указателей C2 : Нет
Коррекция смещения при чтении : 6
Способность читать области Lead-in и Lead-out : Нет
Заполнение пропущенных сэмплов тишиной : Да
Удаление блоков с тишиной в начале и конце : Нет
При вычислениях CRC использовались нулевые сэмплы : Да
Интерфейс : Встроенный Win32-интерфейс для Win NT/2000
Выходной формат : Внутренние WAV-операции
Формат сэмплов : 44.100 Гц; 16 бит; стерео
TOC извлечённого CD
Трек | Старт | Длительность | Начальный сектор | Конечный сектор
---------------------------------------------------------------------
1 | 0:00.00 | 5:16.64 | 0 | 23763
2 | 5:16.64 | 7:44.50 | 23764 | 58613
3 | 13:01.39 | 2:40.17 | 58614 | 70630
4 | 15:41.56 | 6:02.32 | 70631 | 97812
5 | 21:44.13 | 2:36.50 | 97813 | 109562
6 | 24:20.63 | 5:25.06 | 109563 | 133943
7 | 29:45.69 | 0:48.44 | 133944 | 137587
8 | 30:34.38 | 1:16.64 | 137588 | 143351
9 | 31:51.27 | 5:59.41 | 143352 | 170317
10 | 37:50.68 | 2:25.16 | 170318 | 181208
11 | 40:16.09 | 2:35.74 | 181209 | 192907
12 | 42:52.08 | 3:00.74 | 192908 | 206481
13 | 45:53.07 | 2:23.03 | 206482 | 217209
14 | 48:16.10 | 3:42.25 | 217210 | 233884
15 | 51:58.35 | 4:59.13 | 233885 | 256322
16 | 56:57.48 | 4:50.34 | 256323 | 278106
Характеристики диапазона извлечения и сообщения об ошибках
Выбранный диапазон
Имя файла C:\Documents and Settings\Agni\Мои документы\EAC\Le Poeme Harmonique - Daniel Brel - Quatre chemins de melancolie.wav
Пиковый уровень 99.8 %
Качество диапазона 100.0 %
CRC теста FB10E29B
CRC копии FB10E29B
Копирование... OK
Ошибок не произошло
AccurateRip: сводка
Трек 1 точное извлечение (доверие 3) [F69D6E91]
Трек 2 точное извлечение (доверие 3) [D40DBDA1]
Трек 3 точное извлечение (доверие 3) [3E62BF95]
Трек 4 точное извлечение (доверие 3) [F2483791]
Трек 5 точное извлечение (доверие 3) [71AE47CC]
Трек 6 точное извлечение (доверие 3) [ACF3A96D]
Трек 7 точное извлечение (доверие 3) [280DC8F5]
Трек 8 точное извлечение (доверие 3) [4FA119CC]
Трек 9 точное извлечение (доверие 3) [8A47C4A1]
Трек 10 точное извлечение (доверие 3) [CB11AA08]
Трек 11 точное извлечение (доверие 3) [F2A3AC0B]
Трек 12 точное извлечение (доверие 3) [A1718523]
Трек 13 точное извлечение (доверие 3) [AAB82283]
Трек 14 точное извлечение (доверие 3) [72EEB92C]
Трек 15 точное извлечение (доверие 3) [23D57702]
Трек 16 точное извлечение (доверие 3) [6189B9E9]
Все треки извлечены точно
Конец отчёта

Доп. информация

bandonéon Alfred Arnold, 1931
dessus de viole Feyzeau, 1752
basse de viole à 7 cordes Judith Kraft & Bernard Prunier, 1978
basse de viole à 6 cordes Judith Kraft, 2000
basse de viole à 7 cordes Bernard Prunier, 1993
théorbe Uncilla Lourdes Moreno, 1994



Показать сообщения:    

Текущее время: 03-Дек 09:50

Часовой пояс: UTC + 3


Вы не можете начинать темы
Вы не можете отвечать на сообщения
Вы не можете редактировать свои сообщения
Вы не можете удалять свои сообщения
Вы не можете голосовать в опросах
Вы не можете прикреплять файлы к сообщениям
Вы не можете скачивать файлы