(Renaissance) Plaisir d'amour - Chansons et romances de la France d'autrefois (Le Poeme Harmonique, dir. Vincent Dumestre) - 2004, WavPack (image+.cue) lossless


 

[Цитировать]

Plaisir d'amour
Chansons et romances de la France d'autrefois
Le Poème Harmonique
Vincent Dumestre
Жанр: Renaissance
Страна-производитель диска: EU
Год издания диска: 2004
Издатель (лейбл): Alpha
Номер по каталогу: Alpha 513
Дата записи: June 2004
Аудиокодек: WavPack
Тип рипа: image+.cue
Битрейт аудио: lossless
Продолжительность: 54:21
Источник: собственный рип
Наличие сканов в содержимом раздачи: да

Треклист

01. Quand je menai les chevaux boire [5:21]
02. Jan Petit que danse [2:25]
03. La Louison [4:57]
04. La religieuse rebelle [2:30]
05. La Péronnelle [3:05]
06. Mort et convoi de l'invincible Malbrough [6:22]
07. Les tendres souhaits [3:19]
08. Bourrée [2:18]
09. La blanche biche [6:12]
10. N'èran tres fraires [3:49]
11. Ah ! vous dirai-je maman 1:56]
12. Tambourin [2:02]
13. Qui vòu audir cançon [4:07]
14. La Furstenberg [3:23]
15. Plaisir d'amour [2:34]

Исполнители

Le Poème Harmonique
Vincent Dumestre
Claire Lefilliâtre: chant
Brice Duisit: chant
Isabelle Druet: chant
Odile Edouard: violon
Anne-Marie Lasla: dessus de viole
Magali Imbert: psaltérion & tambour
Pierre Hamon: flûtes & cornemuse
Christophe Tellart: vielle à roue & cornemuse
Isabelle Saint-Yves: basse de viole
Nanja Breedijk: harpe
Arthur Schoonderwoerd: pianoforte à tangentes
Vincent Dumestre: guitare & théorbe

log EAC

Exact Audio Copy V0.99 prebeta 5 from 4. May 2009
Отчёт EAC об извлечении, выполненном 29. июля 2015, 22:33
Le Poeme Harmonique / Plaisir d'amour - Chansons et romances de la France d'autrefois
Дисковод: PIONEER DVD-RW DVR-219L Adapter: 1 ID: 1
Режим чтения : Достоверность
Использование точного потока : Да
Отключение кэша аудио : Да
Использование указателей C2 : Нет
Коррекция смещения при чтении : 6
Способность читать области Lead-in и Lead-out : Нет
Заполнение пропущенных сэмплов тишиной : Да
Удаление блоков с тишиной в начале и конце : Нет
При вычислениях CRC использовались нулевые сэмплы : Да
Интерфейс : Встроенный Win32-интерфейс для Win NT/2000
Выходной формат : Внутренние WAV-операции
Формат сэмплов : 44.100 Гц; 16 бит; стерео
TOC извлечённого CD
Трек | Старт | Длительность | Начальный сектор | Конечный сектор
---------------------------------------------------------------------
1 | 0:00.00 | 5:21.27 | 0 | 24101
2 | 5:21.27 | 2:25.31 | 24102 | 35007
3 | 7:46.58 | 4:56.71 | 35008 | 57278
4 | 12:43.54 | 2:29.55 | 57279 | 68508
5 | 15:13.34 | 3:04.49 | 68509 | 82357
6 | 18:18.08 | 6:22.23 | 82358 | 111030
7 | 24:40.31 | 3:19.27 | 111031 | 125982
8 | 27:59.58 | 2:17.69 | 125983 | 136326
9 | 30:17.52 | 6:11.38 | 136327 | 164189
10 | 36:29.15 | 3:49.04 | 164190 | 181368
11 | 40:18.19 | 1:55.49 | 181369 | 190042
12 | 42:13.68 | 2:02.33 | 190043 | 199225
13 | 44:16.26 | 4:07.34 | 199226 | 217784
14 | 48:23.60 | 3:23.25 | 217785 | 233034
15 | 51:47.10 | 2:33.60 | 233035 | 244569
Характеристики диапазона извлечения и сообщения об ошибках
Выбранный диапазон
Имя файла C:\Documents and Settings\Agni\Мои документы\EAC\Le Poeme Harmonique - Plaisir d'amour - Chansons et romances de la France d'autrefois.wav
Пиковый уровень 99.9 %
Качество диапазона 100.0 %
CRC теста A6A41B6E
CRC копии A6A41B6E
Копирование... OK
Ошибок не произошло
AccurateRip: сводка
Трек 1 точное извлечение (доверие 12) [BCD39732]
Трек 2 точное извлечение (доверие 12) [EF77BA79]
Трек 3 точное извлечение (доверие 12) [4429F0D2]
Трек 4 точное извлечение (доверие 11) [97C16543]
Трек 5 точное извлечение (доверие 12) [5D1A8694]
Трек 6 точное извлечение (доверие 12) [0EF5101C]
Трек 7 точное извлечение (доверие 12) [6AB304D8]
Трек 8 точное извлечение (доверие 12) [759CD130]
Трек 9 точное извлечение (доверие 12) [9E6500E1]
Трек 10 точное извлечение (доверие 11) [0AA8FBC5]
Трек 11 точное извлечение (доверие 12) [4FB3AF4A]
Трек 12 точное извлечение (доверие 12) [CE34C207]
Трек 13 точное извлечение (доверие 12) [5D338D64]
Трек 14 точное извлечение (доверие 12) [DC5A83BC]
Трек 15 точное извлечение (доверие 12) [69B77F64]
Все треки извлечены точно
Конец отчёта



Показать сообщения:    

Текущее время: 03-Дек 01:21

Часовой пояс: UTC + 3


Вы не можете начинать темы
Вы не можете отвечать на сообщения
Вы не можете редактировать свои сообщения
Вы не можете удалять свои сообщения
Вы не можете голосовать в опросах
Вы не можете прикреплять файлы к сообщениям
Вы не можете скачивать файлы