(Classical) Bedrich Smetana - Orchestral Works, Vol.1: Richard III; Wallenstein’s Camp; Hakon Jarl; Prague Carnival - BBC Philharmonic, Gianandrea Noseda - 2007, FLAC (image+.cue) lossless


 

[Цитировать]

Bedřich Smetana - Orchestral Works, Vol.1: Richard III; Wallenstein’s Camp; Hakon Jarl; Prague Carnival - BBC Philharmonic, Gianandrea Noseda
Жанр: Classical
Страна-производитель диска: UK
Год издания диска: 2007
Издатель (лейбл): Chandos Records
Номер по каталогу: CHAN 10413
Дата записи: 2007
Аудиокодек: FLAC
Тип рипа: image+.cue
Битрейт аудио: lossless
Продолжительность: 75:30
Источник: собственный рип
Наличие сканов в содержимом раздачи: да
Треклист:
Bedřich Smetana (1824-1884)
[1] Wallenstein’s Camp
Symphonic poem after F. von Schiller
[2] Richard III
Symphonic poem after William Shakespeare
[3] Hakon Jarl
Symphonic poem after A. Oehlenschläger
[4] The Fisherman
Music to tableau vivant after Goethe
[5] The Peasant Woman
[6] Prague Carnival
[7] Fanfares for Shakespeare’s ‘Richard III’
[8] Grand Overture in D major
[9] March for the Shakespeare Festival
Исполнители:
BBC Philharmonic
Gianandrea Noseda

Лог создания рипа

Exact Audio Copy V1.1 from 23. June 2015
EAC extraction logfile from 1. August 2015, 19:16
BBC Philharmonic, Gianandrea Noseda / Smetana - Orchestral Works, Vol.1
Used drive : HL-DT-STDVDRAM GU70N Adapter: 1 ID: 0
Read mode : Secure
Utilize accurate stream : Yes
Defeat audio cache : Yes
Make use of C2 pointers : No
Read offset correction : 48
Overread into Lead-In and Lead-Out : No
Fill up missing offset samples with silence : Yes
Delete leading and trailing silent blocks : No
Null samples used in CRC calculations : Yes
Used interface : Native Win32 interface for Win NT & 2000
Used output format : User Defined Encoder
Selected bitrate : 128 kBit/s
Quality : High
Add ID3 tag : No
Command line compressor : C:\Program Files (x86)\Exact Audio Copy\Flac\flac.exe
Additional command line options : -V -8 -T "Date=%year%" -T "Genre=%genre%" %source%
TOC of the extracted CD
Track | Start | Length | Start sector | End sector
---------------------------------------------------------
1 | 0:00.00 | 15:03.50 | 0 | 67774
2 | 15:03.50 | 13:27.41 | 67775 | 128340
3 | 28:31.16 | 16:32.69 | 128341 | 202809
4 | 45:04.10 | 4:38.18 | 202810 | 223677
5 | 49:42.28 | 4:07.47 | 223678 | 242249
6 | 53:50.00 | 6:20.61 | 242250 | 270810
7 | 60:10.61 | 1:04.53 | 270811 | 275663
8 | 61:15.39 | 8:26.31 | 275664 | 313644
9 | 69:41.70 | 5:51.71 | 313645 | 340040
Range status and errors
Selected range
Filename C:\temp\Smetana - Orchestral Works, Vol.1 - BBC Philharmonic, Noseda\Smetana - Orchestral Works, Vol.1.wav
Peak level 95.4 %
Extraction speed 2.3 X
Range quality 100.0 %
Test CRC 3030B9D3
Copy CRC 3030B9D3
Copy OK
No errors occurred
AccurateRip summary
Track 1 accurately ripped (confidence 5) [89E587E8] (AR v2)
Track 2 accurately ripped (confidence 5) [7A5B2280] (AR v2)
Track 3 accurately ripped (confidence 5) [748882F6] (AR v2)
Track 4 accurately ripped (confidence 5) [D3BDA93C] (AR v2)
Track 5 accurately ripped (confidence 5) [B6A1313F] (AR v2)
Track 6 accurately ripped (confidence 5) [E6A5B4F7] (AR v2)
Track 7 accurately ripped (confidence 5) [6020AF9C] (AR v2)
Track 8 accurately ripped (confidence 6) [2EA901AB] (AR v2)
Track 9 accurately ripped (confidence 6) [918EE082] (AR v2)
All tracks accurately ripped
End of status report
==== Log checksum BACC1DCA89D79B7DC44244A4134C521C251DC489A908746461DAF3C1B858CC5F ====



Показать сообщения:    

Текущее время: 05-Дек 13:30

Часовой пояс: UTC + 3


Вы не можете начинать темы
Вы не можете отвечать на сообщения
Вы не можете редактировать свои сообщения
Вы не можете удалять свои сообщения
Вы не можете голосовать в опросах
Вы не можете прикреплять файлы к сообщениям
Вы не можете скачивать файлы