После жизни / Afterlife / Après la vie (Иша Патель / Ishu Patel) [1978, Канада, авторская анимация, WEBRip]


 

[Цитировать]

После жизни / Afterlife / Après la vie
Страна: Канада
Жанр: авторская анимация
Год выпуска: 1978
Продолжительность: 00:07:18
Перевод: не требуется
Cубтитры: нет
Режиссёр: Иша Патель / Ishu Patel
Описание: Что есть смерть? Есть ли что-нибудь после смерти? Этот анимационный фильм - попытка художественно отобразить сущность небытия, используя образы древних мифов.
Эпиграфы, предваряющие фильм:
"Боги скрывают от людей счастье смерти, чтобы они терпели тяготы жизни" - Лукан
"Смерть золотой ключ, который открывает дворец вечности" - Мильтон
"Готовым к смерти будь: и смерть и жизнь тогда приятней" - Шекспир
"Всех нас от сна пробудят навсегда,
И ты, о смерть, сама умрешь тогда!" - Джон Донн
Доп. информация: Гран-При фестиваля "Annecy" (1979)
Качество видео: WEBRip
Формат видео: AVI
Видео: 2150 kbps, 720х528 (4:3), 24.000 fps, MPEG-4 Visual (XviD)
Аудио: 192 kbps, 44.1 kHz, 2 channels, MPEG Audio (MP3)

MediaInfo

General
Complete name : Afterlife (1978).avi
Format : AVI
Format/Info : Audio Video Interleave
File size : 123 MiB
Duration : 7mn 18s
Overall bit rate : 2 356 Kbps
Writing library : VirtualDub build 35491/release
Video
ID : 0
Format : MPEG-4 Visual
Format profile : Advanced Simple@L5
Format settings, BVOP : 2
Format settings, QPel : No
Format settings, GMC : No warppoints
Format settings, Matrix : Default (H.263)
Codec ID : XVID
Codec ID/Hint : XviD
Duration : 7mn 18s
Bit rate : 2 150 Kbps
Width : 720 pixels
Height : 528 pixels
Display aspect ratio : 4:3
Frame rate : 24.000 fps
Color space : YUV
Chroma subsampling : 4:2:0
Bit depth : 8 bits
Scan type : Progressive
Compression mode : Lossy
Bits/(Pixel*Frame) : 0.236
Stream size : 112 MiB (91%)
Writing library : XviD 64
Audio
ID : 1
Format : AAC
Format/Info : Advanced Audio Codec
Format profile : LC
Codec ID : FF
Duration : 7mn 18s
Bit rate : 192 Kbps
Channel(s) : 2 channels
Channel positions : Front: L R
Sampling rate : 44.1 KHz
Compression mode : Lossy
Stream size : 10.0 MiB (8%)
Alignment : Split accross interleaves
Interleave, duration : 23 ms (0.56 video frame)
Interleave, preload duration : 510 ms

Скриншот c названием фильма

Скриншоты




Показать сообщения:    

Текущее время: 24-Янв 12:14

Часовой пояс: UTC + 3


Вы не можете начинать темы
Вы не можете отвечать на сообщения
Вы не можете редактировать свои сообщения
Вы не можете удалять свои сообщения
Вы не можете голосовать в опросах
Вы не можете прикреплять файлы к сообщениям
Вы не можете скачивать файлы