(Opera) Richard Wagner - Gotterdammerung - Rudolf Moralt & Wiener Symphoniker, Grob-Prandl, Treptow; Gotterdammerung excerpts - Karl Elmendorff & Chor und Orchester der Bayreuther Festpiele, Fuchs, Svanholm - 2010, FLAC (image+.cue) lossless


 

[Цитировать]

Richard Wagner | Рихард Вагнер
Götterdämmerung | Сумерки богов
Rudolf Moralt & Wiener Symphoniker , Wiener Staatsoperhor | Рудольф Моральт, Венский Cимфонический оркестр, хор Венской Государственной Оперы
Karl Elmendorff & Chor und Orchester der Bayreuther Festspiele | Карл Эльмендорф, Хор и Оркестр Байройтского Фестиваля
Жанр: Opera
Страна-производитель диска: Italy
Год издания диска: 2010
Издатель (лейбл): MYTO
Номер по каталогу: MCD00191
Дата записи: 1949; 1942.
Аудиокодек: FLAC
Тип рипа: image+.cue
Битрейт аудио: lossless
Продолжительность: 4:15:00; 48:57.
Источник: Demonoid
Наличие сканов в содержимом раздачи: да

Треклист:CD 1
  • 1.Vorspiel - Welch Licht leuchtet dort?

  • 2.Vorspiel - An der Weltesche wob ich einst

  • 3.Vorspiel - Dämmert der Tag?

  • 4.Vorspiel - Zu End' ewiges Wissen!

  • 5.Vorspiel - Zu neuen Taten

  • 6.Vorspiel - Lass ich, Liebste

  • 7.Vorspiel - Heil dir, Brünnhilde

  • 8.Erster Aufzug - Nun hör', Hagen

  • 9.Erster Aufzug - Ein Weib weiss ich

  • 10.Erster Aufzug - Brächte Siegfried die Braut

  • 11.Erster Aufzug - Jagt er auf Taten wonnig umher

  • 12.Erster Aufzug - Wer ist Gibichs Sohn?

  • 13.Erster Aufzug - Begrüsse froh

  • 14.Erster Aufzug - Vergäss' ich alles

  • 15.Erster Aufzug - Hast du, Gunther

  • 16.Erster Aufzug - Blühenden Lebens labendes Blut

  • 17.Erster Aufzug - Was nahmst du am Eide nicht teil?

  • 18.Erster Aufzug - Hier sitz' ich zur Wacht
    CD 2
  • 1.Erster Aufzug - Vorspiel 3 Szene

  • 2.Erster Aufzug - Altgewohntes Geräusch raunt

  • 3.Erster Aufzug - Höre mit Sinn, was ich dir sage!

  • 4.Erster Aufzug - So sitzt er

  • 5.Erster Aufzug - Welch banger Träume Mären

  • 6.Erster Aufzug - Blitzend Gewölk

  • 7.Erster Aufzug - Wer drang zu mir?

  • 8.Erster Aufzug - Wer drang zu mir?

  • 9.Erster Aufzug - Die Nacht bricht an

  • 10.Zweiter Aufzug - Vorspiel

  • 11.Zweiter Aufzug - Schläfst du, Hagen

  • 12.Zweiter Aufzug - Der Ewigen Macht

  • 13.Zweiter Aufzug - Hoiho, Hagen

  • 14.Zweiter Aufzug - Heiss mich willkommen

  • 15.Zweiter Aufzug - Hoiho!

  • 16.Zweiter Aufzug - Starke Stiere sollt ihr schlacten

  • 17.Zweiter Aufzug - Heil, dir, Gunther!

  • 18.Zweiter Aufzug - Was ist ihr?
    CD 3
  • 1.Zweiter Aufzug - Einen Ring sah ich

  • 2.Zweiter Aufzug - Heil'ge Götter

  • 3.Zweiter Aufzug - Achtest du so der eignen Ehre?

  • 4.Zweiter Aufzug - Hell Wehr!

  • 5.Zweiter Aufzug - Gunther, wehr deinem Weibe

  • 6.Zweiter Aufzug - Welches Unholds List

  • 7.Zweiter Aufzug - Vertraue mir

  • 8.Zweiter Aufzug - Auf, Gunther

  • 9.Zweiter Aufzug - Was riet mir mein Wissen?

  • 10.Dritter Aufzug - Vorspiel

  • 11.Dritter Aufzug - Frau Sonne sendet lichte Strahlen

  • 12.Dritter Aufzug - Ein Albe führte mich irr

  • 13.Dritter Aufzug - Wie leid' ich doch das karge Lob?

  • 14.Dritter Aufzug - Mein Schwert zerschwang

  • 15.Dritter Aufzug - Hoiho!

  • 16.Dritter Aufzug - Trink, Gunther

  • 17.Dritter Aufzug - Mime hiess ein mürrischer Zwerg

  • 18.Dritter Aufzug - In Leid zu dem Wipfel

  • 19.Dritter Aufzug - Was hör ich?

  • 20.Dritter Aufzug - Brünnhilde!

  • 21.Dritter Aufzug - Trauermarsch
    CD 4
  • 1.Dritter Aufzug - War das sein Horn?

  • 2.Dritter Aufzug - Hoiho!

  • 3.Dritter Aufzug - Schweigt eures Jammers

  • 4.Dritter Aufzug - Starke Scheite schichtet mir dort

  • 5.Dritter Aufzug - O ihr, der Eide ewige Hüter

  • 6.Dritter Aufzug - Mein Erbe nun nehm' ich zu eigen

  • 7.Dritter Aufzug - Fliegt heim

  • 8.Dritter Aufzug - Zurück vom Ring!
    Bonus:

  • 9.Bonus - Mime hiess ein mürrischer Zwerg
  • 10.Bonus - In Leid zu dem Wipfel
  • 11.Bonus - Was hör ich?
  • 12.Bonus - Brünnhilde!
  • 13.Bonus - Trauermarsch
  • 14.Bonus - War das sein Horn?
  • 15.Bonus - Hoiho!
  • 16.Bonus - Schweigt eures Jammers
  • 17.Bonus - Starke Scheite schichtet mir dort
  • 18.Bonus - O ihr, der Eide ewige Hüter
  • 19.Bonus - Mein Erbe nun nehm' ich zu eigen
  • 20.Bonus - Fliegt heim
  • 21.Bonus - Zurück vom Ring!

    Исполнители:

    Conductor - Rudolf Moralt
    Wiener Symphoniker
    Chor der Wiener Staatsoper
    Brunnhilde - Gertrude Grob-Prandl
    Siegfried - Gunther Treptow
    Hagen - Ludwig Weber
    Alberich - Adolf Vogel
    Gunther - Karl Kamann
    Gutrune - Hilde Konetzni & Judith Hellwig (Act 3)
    Waltraute - Rosette Anday
    Woglinde - Elisabeth Rutgers
    Wellgunde - Martha Rohs
    FloBhilde - Sieglinde Wagner
    1. Norne - Rosette Anday
    2. Norne - Georgine von Milinkovic
    3. Norne - Hilde Konetzni
    Bonus:
    Conductor - Karl Elmendorff
    Chor und Orchester der Bayreuther Festspiele
    Sigfried - Set Svanholm
    Gunther - Egmonth Koch
    Hagen - Fridrich Dalberg
    Brunhilde - Marta Fuchs
    Gutrune - Else Fischer

    ОтчётCD1

    CUERipper v2.1.4 Copyright (C) 2008-12 Grigory Chudov
    Extraction logfile from : 07/24/2015 12:40:59
    Used drive : PLDS - DVD-ROM DH-16D5S
    Read offset correction : 6
    Read command : BEh, 12h, BEh, 16 blocks at a time
    Secure mode : 1
    Disk length : 75:06:69
    AccurateRip : disk not present in database
    TOC of the extracted CD
    Track | Start | Length | Start sector | End sector
    ---------------------------------------------------------
    1 | 0:00.00 | 3:51.51 | 0 | 17375
    2 | 3:51.51 | 8:09.07 | 17376 | 54057
    3 | 12:00.58 | 5:00.15 | 54058 | 76572
    4 | 17:00.73 | 4:43.38 | 76573 | 97835
    5 | 21:44.36 | 4:55.20 | 97836 | 119980
    6 | 26:39.56 | 4:09.17 | 119981 | 138672
    7 | 30:48.73 | 7:16.65 | 138673 | 171437
    8 | 38:05.63 | 2:37.25 | 171438 | 183237
    9 | 40:43.13 | 3:43.08 | 183238 | 199970
    10 | 44:26.21 | 3:23.15 | 199971 | 215210
    11 | 47:49.36 | 3:38.02 | 215211 | 231562
    12 | 51:27.38 | 2:00.73 | 231563 | 240635
    13 | 53:28.36 | 4:22.27 | 240636 | 260312
    14 | 57:50.63 | 3:39.60 | 260313 | 276797
    15 | 61:30.48 | 3:12.42 | 276798 | 291239
    16 | 64:43.15 | 2:38.01 | 291240 | 303090
    17 | 67:21.16 | 3:39.29 | 303091 | 319544
    18 | 71:00.45 | 4:06.24 | 319545 | 338018
    Track | Pregap | Indexes
    ---------------------------------------------------------
    1 | 00:02:00 | 1
    2 | 00:00:00 | 1
    3 | 00:00:00 | 1
    4 | 00:00:00 | 1
    5 | 00:00:00 | 1
    6 | 00:00:00 | 1
    7 | 00:00:00 | 1
    8 | 00:00:00 | 1
    9 | 00:00:00 | 1
    10 | 00:00:00 | 1
    11 | 00:00:00 | 1
    12 | 00:00:00 | 1
    13 | 00:00:00 | 1
    14 | 00:00:00 | 1
    15 | 00:00:00 | 1
    16 | 00:00:00 | 1
    17 | 00:00:00 | 1
    18 | 00:00:00 | 1
    Destination files
    C:\Users\a\Music\Rudolf Moralt\1949 - Wagner Gцtterdдmmerung CD 1\Rudolf Moralt - Wagner Gцtterdдmmerung CD 1.flac
    [CTDB TOCID: tct8ZSZEqKkbpP3I30ujS3YpzJ4-] found.
    Track | CTDB Status
    1 | (1/1) Accurately ripped
    2 | (1/1) Accurately ripped
    3 | (1/1) Accurately ripped
    4 | (1/1) Accurately ripped
    5 | (1/1) Accurately ripped
    6 | (1/1) Accurately ripped
    7 | (1/1) Accurately ripped
    8 | (1/1) Accurately ripped
    9 | (1/1) Accurately ripped
    10 | (1/1) Accurately ripped
    11 | (1/1) Accurately ripped
    12 | (1/1) Accurately ripped
    13 | (1/1) Accurately ripped
    14 | (1/1) Accurately ripped
    15 | (1/1) Accurately ripped
    16 | (1/1) Accurately ripped
    17 | (1/1) Accurately ripped
    18 | (1/1) Accurately ripped
    AccurateRip summary
    [AccurateRip ID: 0035f2c8-02ba405f-f3119a12] disk not present in database.
    Track Peak [ CRC32 ] [W/O NULL]
    -- 94.4 [D22F2280] [9F89AFDE]
    01 66.4 [A16FE48F] [31C14B56]
    02 91.3 [E84F456D] [C4CA5805]
    03 92.1 [3C455AE6] [E7AF2CB3]
    04 83.7 [199C0F5C] [149BB6BC]
    05 85.0 [938B819B] [9A206C04]
    06 75.6 [CA17CE3A] [3101C789]
    07 93.3 [074D6AB8] [9B75765A]
    08 78.8 [36BD5E3F] [668D483C]
    09 94.4 [CF30300E] [0E567367]
    10 76.2 [4DF72017] [AB65EC89]
    11 75.8 [A962E0AF] [63757844]
    12 94.1 [A2599B1F] [AD234B14]
    13 66.4 [37AB7BD1] [03D7A622]
    14 56.8 [96774F50] [A81498FE]
    15 73.3 [9C36396F] [8584C200]
    16 60.8 [EF3AFF81] [B6CCB792]
    17 67.9 [B71B9BC0] [E9C07E5E]
    18 94.4 [9922AD51] [45456A9A]
    End of status report

    CD2

    CUERipper v2.1.4 Copyright (C) 2008-12 Grigory Chudov
    Extraction logfile from : 07/24/2015 12:57:15
    Used drive : PLDS - DVD-ROM DH-16D5S
    Read offset correction : 6
    Read command : BEh, 12h, BEh, 16 blocks at a time
    Secure mode : 1
    Disk length : 75:17:09
    AccurateRip : disk not present in database
    TOC of the extracted CD
    Track | Start | Length | Start sector | End sector
    ---------------------------------------------------------
    1 | 0:00.00 | 7:11.24 | 0 | 32348
    2 | 7:11.24 | 6:46.66 | 32349 | 62864
    3 | 13:58.15 | 3:48.12 | 62865 | 79976
    4 | 17:46.27 | 6:16.42 | 79977 | 108218
    5 | 24:02.69 | 5:53.36 | 108219 | 134729
    6 | 29:56.30 | 2:28.54 | 134730 | 145883
    7 | 32:25.09 | 3:42.69 | 145884 | 162602
    8 | 36:08.03 | 5:33.12 | 162603 | 187589
    9 | 41:41.15 | 2:51.58 | 187590 | 200472
    10 | 44:32.73 | 3:14.27 | 200473 | 215049
    11 | 47:47.25 | 5:23.45 | 215050 | 239319
    12 | 53:10.70 | 2:10.08 | 239320 | 249077
    13 | 55:21.03 | 3:44.06 | 249078 | 265883
    14 | 59:05.09 | 4:16.21 | 265884 | 285104
    15 | 63:21.30 | 4:52.51 | 285105 | 307055
    16 | 68:14.06 | 4:30.22 | 307056 | 327327
    17 | 72:44.28 | 2:32.56 | 327328 | 338783
    Track | Pregap | Indexes
    ---------------------------------------------------------
    1 | 00:02:00 | 1
    2 | 00:00:00 | 1
    3 | 00:00:00 | 1
    4 | 00:00:00 | 1
    5 | 00:00:00 | 1
    6 | 00:00:00 | 1
    7 | 00:00:00 | 1
    8 | 00:00:00 | 1
    9 | 00:00:00 | 1
    10 | 00:00:00 | 1
    11 | 00:00:00 | 1
    12 | 00:00:00 | 1
    13 | 00:00:00 | 1
    14 | 00:00:00 | 1
    15 | 00:00:00 | 1
    16 | 00:00:00 | 1
    17 | 00:00:00 | 1
    Destination files
    C:\Users\a\Music\Rudolf Moralt\1949 - Wagner Gцtterdдmmerung CD 2\Rudolf Moralt - 1949 - Wagner Gцtterdдmmerung CD 2.flac
    [CTDB TOCID: nOg8jDL5PREjWfdtLNFFnkFetjo-] found.
    Track | CTDB Status
    1 | (1/1) Accurately ripped
    2 | (1/1) Accurately ripped
    3 | (1/1) Accurately ripped
    4 | (1/1) Accurately ripped
    5 | (1/1) Accurately ripped
    6 | (1/1) Accurately ripped
    7 | (1/1) Accurately ripped
    8 | (1/1) Accurately ripped
    9 | (1/1) Accurately ripped
    10 | (1/1) Accurately ripped
    11 | (1/1) Accurately ripped
    12 | (1/1) Accurately ripped
    13 | (1/1) Accurately ripped
    14 | (1/1) Accurately ripped
    15 | (1/1) Accurately ripped
    16 | (1/1) Accurately ripped
    17 | (1/1) Accurately ripped
    AccurateRip summary
    [AccurateRip ID: 0032ffd7-02716c14-0411a511] disk not present in database.
    Track Peak [ CRC32 ] [W/O NULL]
    -- 100.0 [FEA839B6] [C38D2315]
    01 95.8 [D93E7A42] [D000DFDD]
    02 100.0 [5EEA0505] [7C3CAACE]
    03 100.0 [304509C2] [2635F602]
    04 87.3 [6C145DAF] [EE27812C]
    05 100.0 [7FB19F92] [20FD1DB5]
    06 71.2 [2B319650] [DB762D2E]
    07 78.6 [9764D7C1] [29212A3E]
    08 100.0 [BCEBF4B9] [820020A1]
    09 96.7 [584426C9] [7946D90F]
    10 68.5 [CAFB03A7] [90EE0036]
    11 57.6 [DDB9C312] [71829806]
    12 70.1 [B37286C6] [77518096]
    13 70.7 [C0A99AEC] [350AF448]
    14 89.3 [F4C3BE77] [C98F6879]
    15 100.0 [495A7321] [74BB1648]
    16 87.6 [B447C206] [6AAB0620]
    17 93.1 [03573FE3] [8E4B33C3]
    End of status report

    CD3

    CUERipper v2.1.4 Copyright (C) 2008-12 Grigory Chudov
    Extraction logfile from : 07/24/2015 13:53:09
    Used drive : PLDS - DVD-ROM DH-16D5S
    Read offset correction : 6
    Read command : BEh, 12h, BEh, 16 blocks at a time
    Secure mode : 1
    Disk length : 76:34:50
    AccurateRip : disk not present in database
    TOC of the extracted CD
    Track | Start | Length | Start sector | End sector
    ---------------------------------------------------------
    1 | 0:00.00 | 3:22.57 | 0 | 15206
    2 | 3:22.57 | 2:46.45 | 15207 | 27701
    3 | 6:09.27 | 3:12.10 | 27702 | 42111
    4 | 9:21.37 | 2:27.07 | 42112 | 53143
    5 | 11:48.44 | 4:28.31 | 53144 | 73274
    6 | 16:17.00 | 2:35.04 | 73275 | 84903
    7 | 18:52.04 | 3:27.71 | 84904 | 100499
    8 | 22:20.00 | 4:49.64 | 100500 | 122238
    9 | 27:09.64 | 3:31.68 | 122239 | 138131
    10 | 30:41.57 | 3:01.21 | 138132 | 151727
    11 | 33:43.03 | 3:36.47 | 151728 | 167974
    12 | 37:19.50 | 3:43.42 | 167975 | 184741
    13 | 41:03.17 | 4:00.17 | 184742 | 202758
    14 | 45:03.34 | 5:18.58 | 202759 | 226666
    15 | 50:22.17 | 3:57.03 | 226667 | 244444
    16 | 54:19.20 | 2:28.55 | 244445 | 255599
    17 | 56:48.00 | 4:52.47 | 255600 | 277546
    18 | 61:40.47 | 2:36.11 | 277547 | 289257
    19 | 64:16.58 | 1:58.32 | 289258 | 298139
    20 | 66:15.15 | 3:41.32 | 298140 | 314746
    21 | 69:56.47 | 6:38.03 | 314747 | 344599
    Track | Pregap | Indexes
    ---------------------------------------------------------
    1 | 00:02:00 | 1
    2 | 00:00:00 | 1
    3 | 00:00:00 | 1
    4 | 00:00:00 | 1
    5 | 00:00:00 | 1
    6 | 00:00:00 | 1
    7 | 00:00:00 | 1
    8 | 00:00:00 | 1
    9 | 00:00:00 | 1
    10 | 00:00:00 | 1
    11 | 00:00:00 | 1
    12 | 00:00:00 | 1
    13 | 00:00:00 | 1
    14 | 00:00:00 | 1
    15 | 00:00:00 | 1
    16 | 00:00:00 | 1
    17 | 00:00:00 | 1
    18 | 00:00:00 | 1
    19 | 00:00:00 | 1
    20 | 00:00:00 | 1
    21 | 00:00:00 | 1
    Destination files
    C:\Users\a\Music\Rudolf Moralt\1949 - Wagner Gцtterdдmmerung CD 3\Rudolf Moralt - Wagner Gцtterdдmmerung CD 3.flac
    [CTDB TOCID: SskRBZRvslacjGgg9IkEUePjtyY-] found.
    Track | CTDB Status
    1 | (1/1) Accurately ripped
    2 | (1/1) Accurately ripped
    3 | (1/1) Accurately ripped
    4 | (1/1) Accurately ripped
    5 | (1/1) Accurately ripped
    6 | (1/1) Accurately ripped
    7 | (1/1) Accurately ripped
    8 | (1/1) Accurately ripped
    9 | (1/1) Accurately ripped
    10 | (1/1) Accurately ripped
    11 | (1/1) Accurately ripped
    12 | (1/1) Accurately ripped
    13 | (1/1) Accurately ripped
    14 | (1/1) Accurately ripped
    15 | (1/1) Accurately ripped
    16 | (1/1) Accurately ripped
    17 | (1/1) Accurately ripped
    18 | (1/1) Accurately ripped
    19 | (1/1) Accurately ripped
    20 | (1/1) Accurately ripped
    21 | (1/1) Accurately ripped
    AccurateRip summary
    [AccurateRip ID: 00372abf-0357ecb6-1311f215] disk not present in database.
    Track Peak [ CRC32 ] [W/O NULL]
    -- 100.0 [87DAF9DC] [E80BD42E]
    01 89.7 [F6186825] [808EBA5B]
    02 70.3 [35144E74] [923093C0]
    03 85.2 [2DFA2C52] [2289BF5F]
    04 96.7 [843CDDFD] [9B46970A]
    05 70.8 [448EEB9C] [BF9F7A96]
    06 93.1 [BCDA91B2] [EF24758E]
    07 89.2 [E7C2269F] [95678719]
    08 97.3 [063F13F2] [E7919138]
    09 96.7 [4FF53116] [CB185E57]
    10 96.6 [2CE4DA58] [04A42E33]
    11 67.2 [981EEBC6] [3B7BD6E4]
    12 66.0 [C2CCA13B] [BC9EF700]
    13 72.5 [36D397D8] [2B9290EB]
    14 88.1 [38995A32] [07848FB1]
    15 68.9 [F0F3AF7B] [98C1FFC7]
    16 66.7 [E24F5B3A] [7A8737AB]
    17 81.8 [D98A20C7] [4489DAEE]
    18 87.6 [03796B66] [B59A9900]
    19 83.8 [3FED1EF4] [A6AC6D7F]
    20 96.7 [040B6F16] [DB9D880D]
    21 100.0 [F229F525] [F61A41B2]
    End of status report

    CD4

    CUERipper v2.1.4 Copyright (C) 2008-12 Grigory Chudov
    Extraction logfile from : 07/24/2015 14:14:13
    Used drive : PLDS - DVD-ROM DH-16D5S
    Read offset correction : 6
    Read command : BEh, 12h, BEh, 16 blocks at a time
    Secure mode : 1
    Disk length : 77:00:14
    AccurateRip : disk not present in database
    TOC of the extracted CD
    Track | Start | Length | Start sector | End sector
    ---------------------------------------------------------
    1 | 0:00.00 | 2:29.14 | 0 | 11188
    2 | 2:29.14 | 4:24.33 | 11189 | 31021
    3 | 6:53.47 | 3:33.59 | 31022 | 47055
    4 | 10:27.31 | 4:12.61 | 47056 | 66016
    5 | 14:40.17 | 3:59.53 | 66017 | 83994
    6 | 18:39.70 | 2:06.74 | 83995 | 93518
    7 | 20:46.69 | 3:13.65 | 93519 | 108058
    8 | 24:00.59 | 4:01.37 | 108059 | 126170
    9 | 28:02.21 | 4:50.55 | 126171 | 147975
    10 | 32:53.01 | 2:31.52 | 147976 | 159352
    11 | 35:24.53 | 1:56.25 | 159353 | 168077
    12 | 37:21.03 | 4:12.20 | 168078 | 186997
    13 | 41:33.23 | 6:41.18 | 186998 | 217090
    14 | 48:14.41 | 2:11.60 | 217091 | 226975
    15 | 50:26.26 | 4:36.30 | 226976 | 247705
    16 | 55:02.56 | 3:43.60 | 247706 | 264490
    17 | 58:46.41 | 4:30.10 | 264491 | 284750
    18 | 63:16.51 | 4:08.17 | 284751 | 303367
    19 | 67:24.68 | 1:59.23 | 303368 | 312315
    20 | 69:24.16 | 4:14.70 | 312316 | 331435
    21 | 73:39.11 | 3:21.03 | 331436 | 346513
    Track | Pregap | Indexes
    ---------------------------------------------------------
    1 | 00:02:00 | 1
    2 | 00:00:00 | 1
    3 | 00:00:00 | 1
    4 | 00:00:00 | 1
    5 | 00:00:00 | 1
    6 | 00:00:00 | 1
    7 | 00:00:00 | 1
    8 | 00:00:00 | 1
    9 | 00:03:00 | 1
    10 | 00:00:00 | 1
    11 | 00:00:00 | 1
    12 | 00:00:00 | 1
    13 | 00:00:00 | 1
    14 | 00:00:00 | 1
    15 | 00:00:00 | 1
    16 | 00:00:00 | 1
    17 | 00:00:00 | 1
    18 | 00:00:00 | 1
    19 | 00:00:00 | 1
    20 | 00:00:00 | 1
    21 | 00:00:00 | 1
    Destination files
    C:\Users\a\Music\Rudolf Moralt\1949 - Wagner Gцtterdдmmerung CD 4\Rudolf Moralt - Wagner Gцtterdдmmerung CD 4.flac
    [CTDB TOCID: IshZP7_Eff8bXc_TvCArlb9OuYk-] found.
    Track | CTDB Status
    1 | (1/1) Accurately ripped
    2 | (1/1) Accurately ripped
    3 | (1/1) Accurately ripped
    4 | (1/1) Accurately ripped
    5 | (1/1) Accurately ripped
    6 | (1/1) Accurately ripped
    7 | (1/1) Accurately ripped
    8 | (1/1) Accurately ripped
    9 | (1/1) Accurately ripped
    10 | (1/1) Accurately ripped
    11 | (1/1) Accurately ripped
    12 | (1/1) Accurately ripped
    13 | (1/1) Accurately ripped
    14 | (1/1) Accurately ripped
    15 | (1/1) Accurately ripped
    16 | (1/1) Accurately ripped
    17 | (1/1) Accurately ripped
    18 | (1/1) Accurately ripped
    19 | (1/1) Accurately ripped
    20 | (1/1) Accurately ripped
    21 | (1/1) Accurately ripped
    AccurateRip summary
    [AccurateRip ID: 00396f72-0376789c-30120c15] disk not present in database.
    Track Peak [ CRC32 ] [W/O NULL]
    -- 96.6 [F5988740] [9221A031]
    01 63.9 [F1FF0728] [24A2419A]
    02 90.3 [CF632EC4] [AA72C73D]
    03 83.5 [B1FD7862] [46CFEC2F]
    04 67.1 [5E77ACBC] [FF72824D]
    05 56.7 [90C1D12B] [C599AC08]
    06 80.0 [9EDF81B0] [DBA98C51]
    07 90.2 [2D592BA7] [03ABCD9E]
    08 80.7 [0F7EA339] [5F081919]
    09 72.7 [CB34D5BF] [55C43E87]
    10 65.8 [9CDAE992] [0B5EBC09]
    11 64.6 [B2AB62A4] [4AB5ABF0]
    12 67.8 [AEAFA4E8] [4013A86D]
    13 86.8 [686CBB9C] [00FFF41F]
    14 49.2 [087C8522] [38779500]
    15 63.5 [88E1BCA0] [AC386709]
    16 54.5 [B41CEBEB] [DA97984F]
    17 65.4 [C7373E60] [E91178B3]
    18 58.7 [99DCFF73] [2363A892]
    19 71.9 [51B16DCF] [DBDA9452]
    20 85.6 [FC4533EE] [E7B9C8ED]
    21 96.6 [303E2F43] [42195960]
    End of status report

    Отчёт CUEToolsCD1

    [CUETools log; Date: 24/07/2015 12:40:59; Version: 2.1.4]
    [CTDB TOCID: tct8ZSZEqKkbpP3I30ujS3YpzJ4-] found.
    Track | CTDB Status
    1 | (1/1) Accurately ripped
    2 | (1/1) Accurately ripped
    3 | (1/1) Accurately ripped
    4 | (1/1) Accurately ripped
    5 | (1/1) Accurately ripped
    6 | (1/1) Accurately ripped
    7 | (1/1) Accurately ripped
    8 | (1/1) Accurately ripped
    9 | (1/1) Accurately ripped
    10 | (1/1) Accurately ripped
    11 | (1/1) Accurately ripped
    12 | (1/1) Accurately ripped
    13 | (1/1) Accurately ripped
    14 | (1/1) Accurately ripped
    15 | (1/1) Accurately ripped
    16 | (1/1) Accurately ripped
    17 | (1/1) Accurately ripped
    18 | (1/1) Accurately ripped
    [AccurateRip ID: 0035f2c8-02ba405f-f3119a12] disk not present in database.
    Track Peak [ CRC32 ] [W/O NULL]
    -- 94,4 [D22F2280] [9F89AFDE]
    01 66,4 [A16FE48F] [31C14B56]
    02 91,3 [E84F456D] [C4CA5805]
    03 92,1 [3C455AE6] [E7AF2CB3]
    04 83,7 [199C0F5C] [149BB6BC]
    05 85,0 [938B819B] [9A206C04]
    06 75,6 [CA17CE3A] [3101C789]
    07 93,3 [074D6AB8] [9B75765A]
    08 78,8 [36BD5E3F] [668D483C]
    09 94,4 [CF30300E] [0E567367]
    10 76,2 [4DF72017] [AB65EC89]
    11 75,8 [A962E0AF] [63757844]
    12 94,1 [A2599B1F] [AD234B14]
    13 66,4 [37AB7BD1] [03D7A622]
    14 56,8 [96774F50] [A81498FE]
    15 73,3 [9C36396F] [8584C200]
    16 60,8 [EF3AFF81] [B6CCB792]
    17 67,9 [B71B9BC0] [E9C07E5E]
    18 94,4 [9922AD51] [45456A9A]

    CD2

    [CUETools log; Date: 24/07/2015 12:57:15; Version: 2.1.4]
    [CTDB TOCID: nOg8jDL5PREjWfdtLNFFnkFetjo-] found.
    Track | CTDB Status
    1 | (1/1) Accurately ripped
    2 | (1/1) Accurately ripped
    3 | (1/1) Accurately ripped
    4 | (1/1) Accurately ripped
    5 | (1/1) Accurately ripped
    6 | (1/1) Accurately ripped
    7 | (1/1) Accurately ripped
    8 | (1/1) Accurately ripped
    9 | (1/1) Accurately ripped
    10 | (1/1) Accurately ripped
    11 | (1/1) Accurately ripped
    12 | (1/1) Accurately ripped
    13 | (1/1) Accurately ripped
    14 | (1/1) Accurately ripped
    15 | (1/1) Accurately ripped
    16 | (1/1) Accurately ripped
    17 | (1/1) Accurately ripped
    [AccurateRip ID: 0032ffd7-02716c14-0411a511] disk not present in database.
    Track Peak [ CRC32 ] [W/O NULL]
    -- 100,0 [FEA839B6] [C38D2315]
    01 95,8 [D93E7A42] [D000DFDD]
    02 100,0 [5EEA0505] [7C3CAACE]
    03 100,0 [304509C2] [2635F602]
    04 87,3 [6C145DAF] [EE27812C]
    05 100,0 [7FB19F92] [20FD1DB5]
    06 71,2 [2B319650] [DB762D2E]
    07 78,6 [9764D7C1] [29212A3E]
    08 100,0 [BCEBF4B9] [820020A1]
    09 96,7 [584426C9] [7946D90F]
    10 68,5 [CAFB03A7] [90EE0036]
    11 57,6 [DDB9C312] [71829806]
    12 70,1 [B37286C6] [77518096]
    13 70,7 [C0A99AEC] [350AF448]
    14 89,3 [F4C3BE77] [C98F6879]
    15 100,0 [495A7321] [74BB1648]
    16 87,6 [B447C206] [6AAB0620]
    17 93,1 [03573FE3] [8E4B33C3]

    CD3

    [CUETools log; Date: 24/07/2015 13:53:09; Version: 2.1.4]
    [CTDB TOCID: SskRBZRvslacjGgg9IkEUePjtyY-] found.
    Track | CTDB Status
    1 | (1/1) Accurately ripped
    2 | (1/1) Accurately ripped
    3 | (1/1) Accurately ripped
    4 | (1/1) Accurately ripped
    5 | (1/1) Accurately ripped
    6 | (1/1) Accurately ripped
    7 | (1/1) Accurately ripped
    8 | (1/1) Accurately ripped
    9 | (1/1) Accurately ripped
    10 | (1/1) Accurately ripped
    11 | (1/1) Accurately ripped
    12 | (1/1) Accurately ripped
    13 | (1/1) Accurately ripped
    14 | (1/1) Accurately ripped
    15 | (1/1) Accurately ripped
    16 | (1/1) Accurately ripped
    17 | (1/1) Accurately ripped
    18 | (1/1) Accurately ripped
    19 | (1/1) Accurately ripped
    20 | (1/1) Accurately ripped
    21 | (1/1) Accurately ripped
    [AccurateRip ID: 00372abf-0357ecb6-1311f215] disk not present in database.
    Track Peak [ CRC32 ] [W/O NULL]
    -- 100,0 [87DAF9DC] [E80BD42E]
    01 89,7 [F6186825] [808EBA5B]
    02 70,3 [35144E74] [923093C0]
    03 85,2 [2DFA2C52] [2289BF5F]
    04 96,7 [843CDDFD] [9B46970A]
    05 70,8 [448EEB9C] [BF9F7A96]
    06 93,1 [BCDA91B2] [EF24758E]
    07 89,2 [E7C2269F] [95678719]
    08 97,3 [063F13F2] [E7919138]
    09 96,7 [4FF53116] [CB185E57]
    10 96,6 [2CE4DA58] [04A42E33]
    11 67,2 [981EEBC6] [3B7BD6E4]
    12 66,0 [C2CCA13B] [BC9EF700]
    13 72,5 [36D397D8] [2B9290EB]
    14 88,1 [38995A32] [07848FB1]
    15 68,9 [F0F3AF7B] [98C1FFC7]
    16 66,7 [E24F5B3A] [7A8737AB]
    17 81,8 [D98A20C7] [4489DAEE]
    18 87,6 [03796B66] [B59A9900]
    19 83,8 [3FED1EF4] [A6AC6D7F]
    20 96,7 [040B6F16] [DB9D880D]
    21 100,0 [F229F525] [F61A41B2]

    CD4

    [CUETools log; Date: 24/07/2015 14:14:13; Version: 2.1.4]
    [CTDB TOCID: IshZP7_Eff8bXc_TvCArlb9OuYk-] found.
    Track | CTDB Status
    1 | (1/1) Accurately ripped
    2 | (1/1) Accurately ripped
    3 | (1/1) Accurately ripped
    4 | (1/1) Accurately ripped
    5 | (1/1) Accurately ripped
    6 | (1/1) Accurately ripped
    7 | (1/1) Accurately ripped
    8 | (1/1) Accurately ripped
    9 | (1/1) Accurately ripped
    10 | (1/1) Accurately ripped
    11 | (1/1) Accurately ripped
    12 | (1/1) Accurately ripped
    13 | (1/1) Accurately ripped
    14 | (1/1) Accurately ripped
    15 | (1/1) Accurately ripped
    16 | (1/1) Accurately ripped
    17 | (1/1) Accurately ripped
    18 | (1/1) Accurately ripped
    19 | (1/1) Accurately ripped
    20 | (1/1) Accurately ripped
    21 | (1/1) Accurately ripped
    [AccurateRip ID: 00396f72-0376789c-30120c15] disk not present in database.
    Track Peak [ CRC32 ] [W/O NULL]
    -- 96,6 [F5988740] [9221A031]
    01 63,9 [F1FF0728] [24A2419A]
    02 90,3 [CF632EC4] [AA72C73D]
    03 83,5 [B1FD7862] [46CFEC2F]
    04 67,1 [5E77ACBC] [FF72824D]
    05 56,7 [90C1D12B] [C599AC08]
    06 80,0 [9EDF81B0] [DBA98C51]
    07 90,2 [2D592BA7] [03ABCD9E]
    08 80,7 [0F7EA339] [5F081919]
    09 72,7 [CB34D5BF] [55C43E87]
    10 65,8 [9CDAE992] [0B5EBC09]
    11 64,6 [B2AB62A4] [4AB5ABF0]
    12 67,8 [AEAFA4E8] [4013A86D]
    13 86,8 [686CBB9C] [00FFF41F]
    14 49,2 [087C8522] [38779500]
    15 63,5 [88E1BCA0] [AC386709]
    16 54,5 [B41CEBEB] [DA97984F]
    17 65,4 [C7373E60] [E91178B3]
    18 58,7 [99DCFF73] [2363A892]
    19 71,9 [51B16DCF] [DBDA9452]
    20 85,6 [FC4533EE] [E7B9C8ED]
    21 96,6 [303E2F43] [42195960]



  • Показать сообщения:    

    Текущее время: 08-Дек 14:59

    Часовой пояс: UTC + 3


    Вы не можете начинать темы
    Вы не можете отвечать на сообщения
    Вы не можете редактировать свои сообщения
    Вы не можете удалять свои сообщения
    Вы не можете голосовать в опросах
    Вы не можете прикреплять файлы к сообщениям
    Вы не можете скачивать файлы