(Baroque Oratorio) Myslivecek - Abramo ed Isacco (Dolezal, Korovina, Jin Kim, Kusnjer, Czakova - Kuhn Mixed Chorus / Sinfonietta Praha, Parik) - 1996, APE (image+.cue) lossless


Статистика раздачи [Обновить пиров]
Размер:  594 MB   |    Зарегистрирован:  8 месяцев 20 дней   |    Скачан:  0 раз

Полного источника не было: Никогда

 
   
 
 
 

[Цитировать]

Josef Mysliveček - Abramo ed Isacco
Жанр: Baroque Oratorio
Страна-производитель диска: Czech Republic
Год издания диска: 1996
Издатель (лейбл): Supraphon
Номер по каталогу: SU 3209-2 232
Дата записи: 1991
Аудиокодек: APE
Тип рипа: image+.cue
Битрейт аудио: lossless
Продолжительность: 71'23+70'38
Источник: скачано с
Наличие сканов в содержимом раздачи: да
Треклист:

CD1

1. Act 1 - Sinfonia.
2. Act 1 - Recitativo: Non piu, figlio
3. Act 1 - Ah se macchiar quest' anima.
4. Act 1 - Recitativo: E come, e con quai voci
5. Act 1 - Quell' innocente figlio. Andante grazioso
6. Act 1 - Recitativo: Eterno Dio!
7. Act 1 - Recitativo: Servi, pastori, ola.
8. Act 1 - Recitativo: E il padre l' offrira di sua man.
9. Act 1 - Datti pace, e piu serena.
10. Act 1 - Recitativo: Dunque fra pochi istanti
11. Act 1 - Recitativo: Gamari, che sara?
12. Act 1 - Madre, amico, ah non Piangete!.
13. Act 1 - Recitativo: Madre, se pur tal nome
14. Act 1 - Si, ne' tormenti istessi t' adoro.
15. Act 1 - Recitativo: Andiam, pastori
16. Act 1 - Siam passagieri erranti.
17. Act 1 - Recitativo: Sara! Isacco dov'e?
18. Act 1 - Tercet: Lascia che un baccio imprima.
19. Act 1 - Finale: O figlia d'umilta, d'ogni virtude

CD2

1. Act 2 - Recitativo: Chi per pieta mi dice.
2. Act 2 - Deh parlate, che forse tascendo.
3. Act 2 - Recitativo: De' cenni tuoi/Il sacrifizio io credo
4. Act 2 - Dal gran peso ogni momento io
5. Act 2 - Recitativo: Seguimi, o figlio
6. Act 2 - La Marcia
7. Act 2 - La vittima son io
8. Act 2 - La Marcia da capo /Marcia da lontáno
9. Act 2 - Recitativo: Abramo, Abramo!
10. Act 2 - Rondo d'Isacco: Veggo oh Dio nel cenno espresso.
11. Act 2 - Recitativo: Deh per pieta non ricercar
12. Act 2 - Entra l' uomo, allor che nasce.
13. Act 2 - Recitativo: Gia torna a respirar
14. Act 2 - Recitativo: La vittima mancava
15. Act 2 - Sperai le sue ritorte, quei colpi.
16. Act 2 - Recitativo: Felice Abram, che si gran Prove
17. Act 2 - Sian are i nostri petti.
18. Act 2 - Recitativo: Tacete. Apresi il cielo.
19. Act 2 - Né di felici quel germe altero. Tempo di menuetto
20. Act 2 - Recitativo: Udisti, Abram/Onnipotente Dio
21. Act 2 - Finale II.: Tanti secoli innanzi dunque.
22. Act 2 - Aria Sara
23. Act 2 - Aria Gamari
24. Act 2 - Aria Gamari
Исполнители:
Josef Mysliveček - Abramo ed Isacco
Oratorio in 2 parts
Libretto: Pietro Metastasio
Abramo - Vladimír Doležal, tenor
Isacco - Tatjana Korovina. soprano
Sara - Hye Jin Kim, contralto
Gamari - Ivan Kusnjer, baritone
Angelo - Victoria Luchianez, soprano
Kühn Mixed Chorus
Pavel Kühn, Chorus master
Sinfonietta Praha
Ivan Pařík, Conductor

Лог создания рипа

CD1

Exact Audio Copy V1.0 beta 6 from 9. April 2015
EAC extraction logfile from 21. June 2015, 14:57
Myslivecek / Abramo ed Isacco CD1
Used drive : TSSTcorpCDDVDW SE-208AB Adapter: 1 ID: 2
Read mode : Secure
Utilize accurate stream : Yes
Defeat audio cache : Yes
Make use of C2 pointers : No
Read offset correction : 6
Overread into Lead-In and Lead-Out : No
Fill up missing offset samples with silence : Yes
Delete leading and trailing silent blocks : No
Null samples used in CRC calculations : Yes
Used interface : Native Win32 interface for Win NT & 2000
Used output format : Monkey's Audio Lossless Encoder
Selected bitrate : High Lossless Compression
Quality : High
Add ID3 tag : Yes
Command line compressor : C:\Program Files (x86)\Exact Audio Copy\MAC\MAC.exe
TOC of the extracted CD
Track | Start | Length | Start sector | End sector
---------------------------------------------------------
1 | 0:00.00 | 7:37.33 | 0 | 34307
2 | 7:37.33 | 2:33.10 | 34308 | 45792
3 | 10:10.43 | 5:27.72 | 45793 | 70389
4 | 15:38.40 | 2:00.20 | 70390 | 79409
5 | 17:38.60 | 6:48.33 | 79410 | 110042
6 | 24:27.18 | 3:17.07 | 110043 | 124824
7 | 27:44.25 | 3:00.43 | 124825 | 138367
8 | 30:44.68 | 2:32.02 | 138368 | 149769
9 | 33:16.70 | 7:33.03 | 149770 | 183747
10 | 40:49.73 | 1:03.52 | 183748 | 188524
11 | 41:53.50 | 1:41.33 | 188525 | 196132
12 | 43:35.08 | 5:17.42 | 196133 | 219949
13 | 48:52.50 | 1:13.60 | 219950 | 225484
14 | 50:06.35 | 5:48.25 | 225485 | 251609
15 | 55:54.60 | 0:56.33 | 251610 | 255842
16 | 56:51.18 | 5:23.20 | 255843 | 280087
17 | 62:14.38 | 0:38.45 | 280088 | 282982
18 | 62:53.08 | 5:44.17 | 282983 | 308799
19 | 68:37.25 | 2:47.20 | 308800 | 321344
Range status and errors
Selected range
Filename D:\EAC\Myslivecek - Abramo ed Isacco CD1.wav
Peak level 82.9 %
Extraction speed 5.2 X
Range quality 100.0 %
Test CRC 8D06957F
Copy CRC 8D06957F
Copy OK
No errors occurred
AccurateRip summary
Track 1 not present in database
Track 2 not present in database
Track 3 not present in database
Track 4 not present in database
Track 5 not present in database
Track 6 not present in database
Track 7 not present in database
Track 8 not present in database
Track 9 not present in database
Track 10 not present in database
Track 11 not present in database
Track 12 not present in database
Track 13 not present in database
Track 14 not present in database
Track 15 not present in database
Track 16 not present in database
Track 17 not present in database
Track 18 not present in database
Track 19 not present in database
None of the tracks are present in the AccurateRip database
End of status report
---- CUETools DB Plugin V2.1.6
[CTDB TOCID: xnBM0FlYw5Wq1DgbabFkHxhHlWA-] disk not present in database
Submit result: xnBM0FlYw5Wq1DgbabFkHxhHlWA- has been uploaded
==== Log checksum 2D53F405B4AA37783EA5E0F4092E08734F16D5241DA9514072C976D659D7ED95 ====

CD2

Exact Audio Copy V1.0 beta 6 from 9. April 2015
EAC extraction logfile from 21. June 2015, 14:57
Myslivecek / Abramo ed Isacco CD2
Used drive : TS8XDVDSTRANSCEND Adapter: 1 ID: 1
Read mode : Secure
Utilize accurate stream : Yes
Defeat audio cache : Yes
Make use of C2 pointers : No
Read offset correction : 6
Overread into Lead-In and Lead-Out : No
Fill up missing offset samples with silence : Yes
Delete leading and trailing silent blocks : No
Null samples used in CRC calculations : Yes
Used interface : Native Win32 interface for Win NT & 2000
Used output format : Monkey's Audio Lossless Encoder
Selected bitrate : High Lossless Compression
Quality : High
Add ID3 tag : Yes
Command line compressor : C:\Program Files (x86)\Exact Audio Copy\MAC\MAC.exe
TOC of the extracted CD
Track | Start | Length | Start sector | End sector
---------------------------------------------------------
1 | 0:00.00 | 3:09.68 | 0 | 14242
2 | 3:09.68 | 3:37.10 | 14243 | 30527
3 | 6:47.03 | 0:33.57 | 30528 | 33059
4 | 7:20.60 | 3:13.65 | 33060 | 47599
5 | 10:34.50 | 1:45.25 | 47600 | 55499
6 | 12:20.00 | 1:48.00 | 55500 | 63599
7 | 14:08.00 | 0:37.40 | 63600 | 66414
8 | 14:45.40 | 1:47.65 | 66415 | 74504
9 | 16:33.30 | 1:12.13 | 74505 | 79917
10 | 17:45.43 | 4:02.35 | 79918 | 98102
11 | 21:48.03 | 1:15.37 | 98103 | 103764
12 | 23:03.40 | 6:00.25 | 103765 | 130789
13 | 29:03.65 | 1:30.13 | 130790 | 137552
14 | 30:34.03 | 1:08.40 | 137553 | 142692
15 | 31:42.43 | 7:21.07 | 142693 | 175774
16 | 39:03.50 | 0:59.18 | 175775 | 180217
17 | 40:02.68 | 7:32.40 | 180218 | 214157
18 | 47:35.33 | 0:59.12 | 214158 | 218594
19 | 48:34.45 | 4:24.30 | 218595 | 238424
20 | 52:59.00 | 1:13.60 | 238425 | 243959
21 | 54:12.60 | 2:00.10 | 243960 | 252969
22 | 56:12.70 | 5:35.18 | 252970 | 278112
23 | 61:48.13 | 5:18.05 | 278113 | 301967
24 | 67:06.18 | 3:31.62 | 301968 | 317854
Range status and errors
Selected range
Filename D:\EAC\Myslivecek - Abramo ed Isacco CD2.wav
Peak level 83.7 %
Extraction speed 5.1 X
Range quality 100.0 %
Test CRC 26DF8C8E
Copy CRC 26DF8C8E
Copy OK
No errors occurred
AccurateRip summary
Track 1 not present in database
Track 2 not present in database
Track 3 not present in database
Track 4 not present in database
Track 5 not present in database
Track 6 not present in database
Track 7 not present in database
Track 8 not present in database
Track 9 not present in database
Track 10 not present in database
Track 11 not present in database
Track 12 not present in database
Track 13 not present in database
Track 14 not present in database
Track 15 not present in database
Track 16 not present in database
Track 17 not present in database
Track 18 not present in database
Track 19 not present in database
Track 20 not present in database
Track 21 not present in database
Track 22 not present in database
Track 23 not present in database
Track 24 not present in database
None of the tracks are present in the AccurateRip database
End of status report
---- CUETools DB Plugin V2.1.6
[CTDB TOCID: bmS6HNv0LH.T8ZsDNZCU0eDtxfk-] disk not present in database
Submit result: unrecognized or virtual drive
==== Log checksum 5DDE22B59E4882E836738528DE6C23FEB66DCF070C6367D9FD8A806A37F46424 ====

Содержание индексной карты (.CUE)

CD1

REM GENRE Oratorio
REM DATE 1991
REM DISCID 2110BC13
REM COMMENT "ExactAudioCopy v1.0b6"
PERFORMER "Myslivecek"
TITLE "Abramo ed Isacco CD1"
FILE "Myslivecek - Abramo ed Isacco CD1.ape" WAVE
TRACK 01 AUDIO
TITLE "Part One 1. Ouverture"
PERFORMER "Sinfonietta Praha, Parik"
INDEX 01 00:00:00
TRACK 02 AUDIO
TITLE "Part One 2. 'Non piu, figlio'"
PERFORMER "Sinfonietta Praha, Parik"
INDEX 01 07:37:33
TRACK 03 AUDIO
TITLE "Part One 3. 'Ah se macchiar quest' anima'"
PERFORMER "Sinfonietta Praha, Parik"
INDEX 01 10:10:43
TRACK 04 AUDIO
TITLE "Part One 4. 'E come, e con quai voci'"
PERFORMER "Sinfonietta Praha, Parik"
INDEX 01 15:38:40
TRACK 05 AUDIO
TITLE "Part One 5. 'Quell' innocente figlio'"
PERFORMER "Sinfonietta Praha, Parik"
INDEX 01 17:38:60
TRACK 06 AUDIO
TITLE "Part One 6. 'Eterno Dio!'"
PERFORMER "Sinfonietta Praha, Parik"
INDEX 01 24:27:18
TRACK 07 AUDIO
TITLE "Part One 7. 'Servi, pastori, ola.'_Recitattivo secco"
PERFORMER "Sinfonietta Praha, Parik"
INDEX 01 27:44:25
TRACK 08 AUDIO
TITLE "Part One 7b. 'E il padre l'offrira di sua man.'_Recitativo accompagnato"
PERFORMER "Sinfonietta Praha, Parik"
INDEX 01 30:44:68
TRACK 09 AUDIO
TITLE "Part One 8. 'Datti pace, e piu serena'"
PERFORMER "Sinfonietta Praha, Parik"
INDEX 01 33:16:70
TRACK 10 AUDIO
TITLE "Part One 9. 'Dunque fra pochi istanti'"
PERFORMER "Sinfonietta Praha, Parik"
INDEX 01 40:49:73
TRACK 11 AUDIO
TITLE "Part One 9b. 'Gamari, che sara'_Recitativo accompagnato"
PERFORMER "Sinfonietta Praha, Parik"
INDEX 01 41:53:50
TRACK 12 AUDIO
TITLE "Part One 10. 'Madre, amico, ah non Piangete!'"
PERFORMER "Sinfonietta Praha, Parik"
INDEX 01 43:35:08
TRACK 13 AUDIO
TITLE "Part One 11. 'Madre, se pur tal nome'"
PERFORMER "Sinfonietta Praha, Parik"
INDEX 01 48:52:50
TRACK 14 AUDIO
TITLE "Part One 12. 'Si, ne' tormenti istessi t'adoro'"
PERFORMER "Sinfonietta Praha, Parik"
INDEX 01 50:06:35
TRACK 15 AUDIO
TITLE "Part One 13. 'Andiam, pastori'"
PERFORMER "Sinfonietta Praha, Parik"
INDEX 01 55:54:60
TRACK 16 AUDIO
TITLE "Part One 14. 'Siam passeggieri erranti'"
PERFORMER "Sinfonietta Praha, Parik"
INDEX 01 56:51:18
TRACK 17 AUDIO
TITLE "Part One 15. 'Sara! Isacco dov' e'"
PERFORMER "Sinfonietta Praha, Parik"
INDEX 01 62:14:38
TRACK 18 AUDIO
TITLE "Part One 16. 'Lascia che un baccio'"
PERFORMER "Sinfonietta Praha, Parik"
INDEX 01 62:53:08
TRACK 19 AUDIO
TITLE "Part One 14a. 'O figlia d' umlita, d'ogni virtude'"
PERFORMER "Sinfonietta Praha, Parik"
INDEX 01 68:37:25

CD2

REM GENRE Oratorio
REM DATE 1991
REM DISCID 56108E18
REM COMMENT "ExactAudioCopy v1.0b6"
PERFORMER "Myslivecek"
TITLE "Abramo ed Isacco CD2"
FILE "Myslivecek - Abramo ed Isacco CD2.ape" WAVE
TRACK 01 AUDIO
TITLE "Part Two 17. 'Chi per pieta mi dice'"
PERFORMER "Sinfonietta Praha, Parik"
INDEX 01 00:00:00
TRACK 02 AUDIO
TITLE "Part Two 18. 'Deh parlate, che forse tascendo'"
PERFORMER "Sinfonietta Praha, Parik"
INDEX 01 03:09:68
TRACK 03 AUDIO
TITLE "Part Two 19. 'De' cenni tuoi'_'Il sacrifizio io credo'"
PERFORMER "Sinfonietta Praha, Parik"
INDEX 01 06:47:03
TRACK 04 AUDIO
TITLE "Part Two 20. 'Dal gran peso ogni momento io'"
PERFORMER "Sinfonietta Praha, Parik"
INDEX 01 07:20:60
TRACK 05 AUDIO
TITLE "Part Two 21. 'Seguimi, o figlio'"
PERFORMER "Sinfonietta Praha, Parik"
INDEX 01 10:34:50
TRACK 06 AUDIO
TITLE "Part Two 22. La Marcia"
PERFORMER "Sinfonietta Praha, Parik"
INDEX 01 12:20:00
TRACK 07 AUDIO
TITLE "Part Two 23. 'La vittima son io'"
PERFORMER "Sinfonietta Praha, Parik"
INDEX 01 14:08:00
TRACK 08 AUDIO
TITLE "Part Two 22b. La Marcia da capo"
PERFORMER "Sinfonietta Praha, Parik"
INDEX 01 14:45:40
TRACK 09 AUDIO
TITLE "Part Two 24. 'Abramo, Abramo!'"
PERFORMER "Sinfonietta Praha, Parik"
INDEX 01 16:33:30
TRACK 10 AUDIO
TITLE "Part Two 25. 'Veggo oh Dio nel cenno'"
PERFORMER "Sinfonietta Praha, Parik"
INDEX 01 17:45:43
TRACK 11 AUDIO
TITLE "Part Two 26. 'Deh, per pieta non ricercar'"
PERFORMER "Sinfonietta Praha, Parik"
INDEX 01 21:48:03
TRACK 12 AUDIO
TITLE "Part Two 27. 'Entra l'uomo, allor che nasce'"
PERFORMER "Sinfonietta Praha, Parik"
INDEX 01 23:03:40
TRACK 13 AUDIO
TITLE "Part Two 28. 'Gia torna a respirar'"
PERFORMER "Sinfonietta Praha, Parik"
INDEX 01 29:03:65
TRACK 14 AUDIO
TITLE "Part Two 29. 'La vittima mancava'"
PERFORMER "Sinfonietta Praha, Parik"
INDEX 01 30:34:03
TRACK 15 AUDIO
TITLE "Part Two 30. 'Sperai le sue ritorte, quei colpi'"
PERFORMER "Sinfonietta Praha, Parik"
INDEX 01 31:42:43
TRACK 16 AUDIO
TITLE "Part Two 31. 'Felice Abram, che si gran Prove'"
PERFORMER "Sinfonietta Praha, Parik"
INDEX 01 39:03:50
TRACK 17 AUDIO
TITLE "Part Two 32. 'Sian are i nostri petti'"
PERFORMER "Sinfonietta Praha, Parik"
INDEX 01 40:02:68
TRACK 18 AUDIO
TITLE "Part Two 33. 'Tacete. Apresi il cielo.'"
PERFORMER "Sinfonietta Praha, Parik"
INDEX 01 47:35:33
TRACK 19 AUDIO
TITLE "Part Two 34. 'Ne di felici quel germe altero'"
PERFORMER "Sinfonietta Praha, Parik"
INDEX 01 48:34:45
TRACK 20 AUDIO
TITLE "Part Two 35. 'Udisti, Abram'_'Onnipotente Dio'"
PERFORMER "Sinfonietta Praha, Parik"
INDEX 01 52:59:00
TRACK 21 AUDIO
TITLE "Part Two 36. 'Tanti secoli innanzi dunque'"
PERFORMER "Sinfonietta Praha, Parik"
INDEX 01 54:12:60
TRACK 22 AUDIO
TITLE "Part Two 37_12 Aria Sara"
PERFORMER "Sinfonietta Praha, Parik"
INDEX 01 56:12:70
TRACK 23 AUDIO
TITLE "Part Two 38_14 Aria Gamari"
PERFORMER "Sinfonietta Praha, Parik"
INDEX 01 61:48:13
TRACK 24 AUDIO
TITLE "Part Two 39_20 Aria Gamari"
PERFORMER "Sinfonietta Praha, Parik"
INDEX 01 67:06:18
[teatrix.ru].t21934.torrent 
Торрент: Зарегистрирован [ 2016-03-20 12:49 ] · F50418AEDEE39235EC4E38FA324E404D482768CD

Скачать .torrent

Скачать

14 KB

Статус: проверено
Скачан: 0 раз
Размер: 594 MB
terms.php



Быстрый ответ

Имя:

      
Для отправки сообщений необходимо включить JavaScript
Показать сообщения:    

Текущее время: 10-Дек 02:16

Часовой пояс: UTC + 3


Вы можете начинать темы
Вы можете отвечать на сообщения
Вы не можете редактировать свои сообщения
Вы не можете удалять свои сообщения
Вы не можете голосовать в опросах
Вы не можете прикреплять файлы к сообщениям
Вы можете скачивать файлы