[TR24][SM][OF] Arianna Savall · Petter Udland Johansen · Hirundo Maris - Chants du Sud et du Nord - 2012 [ECM New Series] (Classical, Traditional)


Статистика раздачи [Обновить пиров]
Размер:  710 MB   |    Зарегистрирован:  8 месяцев 21 день   |    Скачан:  0 раз

Полного источника не было: Никогда

 
   
 
 
 

[Цитировать]

Arianna Savall · Petter Udland Johansen · Hirundo Maris / Chants du Sud et du Nord
Формат записи/Источник записи: [TR24][SM][OF]
Наличие водяных знаков: Нет
Издание: ECM New Series 2227
Год издания/переиздания диска: 2012
Жанр: Classical, Traditional
Издатель(лейбл): © ECM Records GmbH
Продолжительность: 01:19:43
Наличие сканов в содержимом раздачи: cover & booklet
Контейнер: FLAC (*.flac)
Тип рипа: tracks
Разрядность: 24/44,1
Формат: WAV (flac.ape.wv)
Количество каналов: 2.0
http://www.qobuz.com/fr-fr/album/hirundo-maris-chants-du-sud-et-du-nord-edition-s...15730?qref=dac_5

Треклист

01 El Mestre 06:33
02 Buenas Noches 05:49
03 Ya Salió de la Mar 02:36
04 Om Kvelden 04:38
05 El Mariner 06:14
06 Le Chant Des Étoiles 03:44
07 Morena Me Llaman 06:10
08 Bendik og Årolilja 07:01
09 Ormen Lange 02:50
10 Tarantela 04:46
11 The Water Is Wide 05:24
12 El Noi de la Mare 03:32
13 Josep i Maria 03:28
14 Penselstrøk 05:19
15 Halling 02:53
16 Yo M'enamorí D'un Aire 05:35
17 Trollmors vuggesang 03:13

Исполнители

Arianna Savall: voice, Gothic harp, Italian triple harp
Petter Udland Johansen: voice, hardingfele, mandolin
Sveinung Lilleheier: guitar, Dobro, voice
Miquel Àngel Cordero: double-bass, voice
David Mayoral: percussion, voice

Dynamic Range Meter

foobar2000 1.2.6 / Dynamic Range Meter 1.1.1
log date: 2015-08-07 00:47:11
--------------------------------------------------------------------------------
Analyzed: Hirundo Maris, Arianna Savall, Petter Udland Johansen / Chants du Sud et du Nord
--------------------------------------------------------------------------------
DR Peak RMS Duration Track
--------------------------------------------------------------------------------
DR13 -0.10 dB -19.72 dB 6:33 01-El mestre
DR13 -0.39 dB -17.93 dB 5:49 02-Buenas noches
DR12 -2.56 dB -18.46 dB 2:36 03-Ya salió de la mar
DR13 -11.36 dB -29.58 dB 4:38 04-Om kvelden
DR13 -0.98 dB -19.58 dB 6:14 05-El mariner
DR12 -12.41 dB -30.56 dB 3:45 06-Le Chant des étoiles
DR15 -2.79 dB -25.37 dB 6:11 07-Morena me llaman
DR14 -5.46 dB -26.97 dB 7:02 08-Bendik og Arolilja
DR14 -0.74 dB -18.32 dB 2:51 09-Ormen Lange
DR14 -2.35 dB -21.94 dB 4:46 10-Tarantela
DR14 -9.29 dB -31.35 dB 5:24 11-The Water Is Wide
DR15 -4.47 dB -26.20 dB 3:32 12-El noi de la mare
DR13 -4.08 dB -21.84 dB 3:29 13-Josep i Maria
DR13 -13.64 dB -31.22 dB 5:19 14-Penselstrøk
DR13 -11.20 dB -28.75 dB 2:54 15-Halling
DR14 -0.10 dB -19.43 dB 5:36 16-Yo m'enamori d'un aire
DR13 -4.93 dB -24.77 dB 3:14 17-Trollmors vuggesang
--------------------------------------------------------------------------------
Number of tracks: 17
Official DR value: DR13
Samplerate: 44100 Hz
Channels: 2
Bits per sample: 24
Bitrate: 1153 kbps
Codec: FLAC
================================================================================
[teatrix.ru].t21935.torrent 
Торрент: Зарегистрирован [ 2016-03-20 12:49 ] · A2B446D7B00B7491522FCC72B41C5F908F0AF9F3

Скачать .torrent

Скачать

15 KB

Статус: проверено
Скачан: 0 раз
Размер: 710 MB
terms.php



Быстрый ответ

Имя:

      
Для отправки сообщений необходимо включить JavaScript
Показать сообщения:    

Текущее время: 11-Дек 05:23

Часовой пояс: UTC + 3


Вы можете начинать темы
Вы можете отвечать на сообщения
Вы не можете редактировать свои сообщения
Вы не можете удалять свои сообщения
Вы не можете голосовать в опросах
Вы не можете прикреплять файлы к сообщениям
Вы можете скачивать файлы