(Classical) Franz Schubert — String Quartet № 14; Quartettsatz (Movement for String Quartet) (D 810, 703) (Jerusalem Quartet) — 2008, APE (image+.cue) lossless


 

[Цитировать]

String Quartet № 14; Quartettsatz (Movement for String Quartet) (D 810, 703)-
Жанр: Classical
Страна-производитель диска: Австрия
Год издания диска: 2008
Издатель (лейбл): Harmonia Mundi
Номер по каталогу: HMC 901990
CATALOG: 794881868827
Композитор: Franz Peter Schubert
Аудио кодек: ape
Тип рипа: image+.cue
Битрейт аудио: lossless
Продолжительность: 00h51'54"
Источник: intoclassics
Наличие сканов в содержимом раздачи: да-Треклист:
Quartettsatz (Movement for String Quartet) c-moll D 703
01. Allegro assai [00h08'58"]
String Quartet № 14 d-moll D 810 «Death And The Maiden»
02. I. Allegro [00h15'50"]
03. II. Andante con moto [00h14'15"]
04. III. Scherzo: Allegro molto [00h03'48"]
05. IV. Presto [00h09'03"]
Jerusalem Quartet-

auCDtect log

-----------------------
[br]
DON'T MODIFY THIS FILE
[br]
-----------------------
[br]
PERFORMER: auCDtect Task Manager, ver. 1.5.1RC4 build 1.5.1.5
Copyright (c) 2008-2010 y-soft. All rights reserved
http://y-soft.org
[br]
ANALYZER: auCDtect: CD records authenticity detector, version 0.8.2
Copyright (c) 2004 Oleg Berngardt. All rights reserved.
Copyright (c) 2004 Alexander Djourik. All rights reserved.
[br]
FILE: Der Tod und das Maedchen.ape
Size: 241717530 Hash: 7499AC3F5E1F32DB583334AEC37A0399 Accuracy: -m0
Conclusion: CDDA 100%
Signature: 44FC85FEB59C797A0344599E7B02B3F66B6BC8E0
-

Срез частот

-

CUE

REM GENRE Classical
REM DATE 2008
REM DISCID 460C2905
REM COMMENT "ExactAudioCopy v0.95b4"
PERFORMER "Jerusalem Quartet"
TITLE "Franz Schubert - Der Tod und das Mдdchen"
FILE "Der Tod und das Maedchen.ape" WAVE
TRACK 01 AUDIO
TITLE "Quartettsatz in C minor - Allegro assai"
PERFORMER "Jerusalem Quartet"
INDEX 01 00:00:00
TRACK 02 AUDIO
TITLE "Der Tod und das Mдdchen - String Quartet in D minor - I. Allegro"
PERFORMER "Jerusalem Quartet"
INDEX 00 08:57:51
INDEX 01 08:57:52
TRACK 03 AUDIO
TITLE "Der Tod und das Mдdchen - String Quartet in D minor - II. Andante con molto"
PERFORMER "Jerusalem Quartet"
INDEX 01 24:47:39
TRACK 04 AUDIO
TITLE "Der Tod und das Mдdchen - String Quartet in D minor - III. Scherzo. Allegro m..."
PERFORMER "Jerusalem Quartet"
INDEX 01 39:02:14
TRACK 05 AUDIO
TITLE "Der Tod und das Mдdchen - String Quartet in D minor - IV. Presto"
PERFORMER "Jerusalem Quartet"
INDEX 01 42:50:34
-



Показать сообщения:    

Текущее время: 02-Дек 23:04

Часовой пояс: UTC + 3


Вы не можете начинать темы
Вы не можете отвечать на сообщения
Вы не можете редактировать свои сообщения
Вы не можете удалять свои сообщения
Вы не можете голосовать в опросах
Вы не можете прикреплять файлы к сообщениям
Вы не можете скачивать файлы