(Classical) Franz Joseph Haydn — String Quartets Op 64/5, 76/2, 77/1 (Jerusalem Quartet) — 2004, APE (image+.cue) lossless


 

[Цитировать]

String Quartets Op 64/5, 76/2, 77/1-
Жанр: Classical
Страна-производитель диска: Австрия
Год издания диска: 2004
Издатель (лейбл): Harmonia Mundi
Номер по каталогу: HMC 901823
Композитор: Franz Joseph Haydn
Аудио кодек: ape
Тип рипа: image+.cue
Битрейт аудио: lossless
Продолжительность: 01h06'13"
Источник: intoclassics
Наличие сканов в содержимом раздачи: да-Треклист:
String Quartet D-Dur Op 64 № 5 «L'Alouette»
01. I. Allegro moderato [00h08'46"]
02. II. Adagio cantabile [00h05'44"]
03. III. Menuetto – Allegro [00h03'10"]
04. IV. Finale – Vivace [00h02'14"]
String Quartet d-moll Op 76 № 2 «'Les Quintes»
05. I. Allegro [00h08'41"]
06. II. Andante e piu tosto allegretto [00h05'58"]
07. III. Menuetto – Allegro ma non troppo [00h03'51"]
08. IV. Vivace assai [00h04'03"]
String Quartet G-Dur Op 77 № 1 «Lobkowitz»
09. I. Allegro moderato [00h07'36"]
10. II. Adagio [00h07'09"]
11. III. Menuetto – Presto – Trio [00h03'55"]
12. IV. Finale – Presto [00h04'03"]
Jerusalem Quartet-

auCDtect log

-----------------------
[br]
DON'T MODIFY THIS FILE
[br]
-----------------------
[br]
PERFORMER: auCDtect Task Manager, ver. 1.5.1RC4 build 1.5.1.5
Copyright (c) 2008-2010 y-soft. All rights reserved
http://y-soft.org
[br]
ANALYZER: auCDtect: CD records authenticity detector, version 0.8.2
Copyright (c) 2004 Oleg Berngardt. All rights reserved.
Copyright (c) 2004 Alexander Djourik. All rights reserved.
[br]
FILE: String Quartets.ape
Size: 304239595 Hash: 9D31D8BFD2179D8FFF01459468811D3E Accuracy: -m0
Conclusion: CDDA 99%
Signature: A67307408D33CB7B9C600BDE9BD9D3CE0CDFFDD5
-

Срез частот

-

CUE

REM GENRE "Chamber Music"
REM DATE 2004
REM DISCID AC0F850C
REM COMMENT "ExactAudioCopy v0.95b4"
PERFORMER "Jerusalem Quartet"
TITLE "Haydn String Quartets"
FILE "String Quartets.ape" WAVE
TRACK 01 AUDIO
TITLE "String Quartet Op.64 No.5 'L'Alouette' - 1. Allegro moderato"
PERFORMER "Jerusalem Quartet"
INDEX 01 00:00:00
TRACK 02 AUDIO
TITLE "String Quartet Op.64 No.5 'L'Alouette' - 2. Adagio cantabile"
PERFORMER "Jerusalem Quartet"
INDEX 01 08:46:26
TRACK 03 AUDIO
TITLE "String Quartet Op.64 No.5 'L'Alouette' - 3. Menuetto. Allegro"
PERFORMER "Jerusalem Quartet"
INDEX 01 14:30:58
TRACK 04 AUDIO
TITLE "String Quartet Op.64 No.5 'L'Alouette' - 4. Finale. Vivace"
PERFORMER "Jerusalem Quartet"
INDEX 00 17:41:14
INDEX 01 17:41:16
TRACK 05 AUDIO
TITLE "String Quartet Op.76 No.2 'Les Quintes' - 1. Allegro"
PERFORMER "Jerusalem Quartet"
INDEX 00 19:48:48
INDEX 01 19:55:11
TRACK 06 AUDIO
TITLE "String Quartet Op.76 No.2 'Les Quintes' - 2. Andante e piu tosto allegretto"
PERFORMER "Jerusalem Quartet"
INDEX 01 28:36:00
TRACK 07 AUDIO
TITLE "String Quartet Op.76 No.2 'Les Quintes' - 3. Menuetto. Allegro ma non troppo ..."
PERFORMER "Jerusalem Quartet"
INDEX 01 34:34:30
TRACK 08 AUDIO
TITLE "String Quartet Op.76 No.2 'Les Quintes' - 4. Vivace assai"
PERFORMER "Jerusalem Quartet"
INDEX 01 38:25:18
TRACK 09 AUDIO
TITLE "String Quartet Op.77 No.1 'Lobkowitz' - 1. Allegro moderato"
PERFORMER "Jerusalem Quartet"
INDEX 00 42:21:61
INDEX 01 42:27:72
TRACK 10 AUDIO
TITLE "String Quartet Op.77 No.1 'Lobkowitz' - 2. Adagio"
PERFORMER "Jerusalem Quartet"
INDEX 01 50:03:71
TRACK 11 AUDIO
TITLE "String Quartet Op.77 No.1 'Lobkowitz' - 3. Menuetto. Presto - Trio"
PERFORMER "Jerusalem Quartet"
INDEX 01 57:12:35
TRACK 12 AUDIO
TITLE "String Quartet Op.77 No.1 'Lobkowitz' - 4. Finale. Presto"
PERFORMER "Jerusalem Quartet"
INDEX 01 61:07:04
-



Показать сообщения:    

Текущее время: 10-Дек 21:36

Часовой пояс: UTC + 3


Вы не можете начинать темы
Вы не можете отвечать на сообщения
Вы не можете редактировать свои сообщения
Вы не можете удалять свои сообщения
Вы не можете голосовать в опросах
Вы не можете прикреплять файлы к сообщениям
Вы не можете скачивать файлы