(Classical) Сергей Рахманинов - Симфонические танцы • Вокализ • Этюды-картины (орк. Респиги) / Sergei Rachmaninov - Symphonic dances • Vocalise • Etudes-tableaux (orch. Respighi) (Minnesota Orchestra, Eiji Oue) - 2001 , FLAC (tracks+.cue) lossless


 

[Цитировать]

Сергей Рахманинов | Sergei Rachmaninov
(1873–1943)



Симфонические танцы | Вокализ | Этюды-картины (орк. Респиги)
Symphonic dances | Vocalise | Études-tableaux (orch. Respighi)


Minnesota Orchestra
Eiji Oue conductor


Жанр: Classical / Orchestral
Дата и место записи: Orchestra Hall, Minneapolis, Minnesota, USA, 31 May & 1 June 2001
Формат записи: DDD, Stereo
Год издания диска: 2001
Издатель (лейбл): Reference Records
Номер по каталогу: RR-96
Аудиокодек: FLAC
Тип рипа: tracks+.cue
Битрейт аудио: lossless
Продолжительность: 1:07:11
Наличие сканов в содержимом раздачи: только обложка
Источник: What.CD
Релизёр: mattski


Tracklist / Треклист
Симфонические танцы (Symphonic dances), Op. 45 - 37:01
I. Non allegro. — Lento - 11:56
  • II. Andante con moto (Tempo di Valse) - 10:29
  • III. Lento assai. — Allegro vivace - 14:36
    Вокализ (Vocalise), Op. 34 No. 14 - 6:50
    Этюды-картины (Études-tableaux, orch. Ottorino Respighi, P 160) - 23:20
    1. La mer et les mouettes (Op. 39 No. 2) - 7:10
  • 2. La foire (Op. 33 No. 4) - 2:02
  • 3. Marche funèbre (Op. 39 No. 7) - 7:18
  • 4. Le Chaperon Rouge et le Loup (Op. 39 No. 6) - 3:04
  • 5. Marche (Op. 39 No. 9) - 3:46

    -

    EAC log / Отчёт EAC

    Exact Audio Copy V1.0 beta 3 from 29. August 2011
    EAC extraction logfile from 6. November 2011, 12:41
    Minnesota Orch / Rachmaninoff Orchestral Music
    Used drive : Optiarc DVD+-RW AD-7717H Adapter: 1 ID: 0
    Read mode : Secure
    Utilize accurate stream : Yes
    Defeat audio cache : Yes
    Make use of C2 pointers : No
    Read offset correction : 48
    Overread into Lead-In and Lead-Out : No
    Fill up missing offset samples with silence : Yes
    Delete leading and trailing silent blocks : No
    Null samples used in CRC calculations : Yes
    Used interface : Native Win32 interface for Win NT & 2000
    Gap handling : Appended to previous track
    Used output format : User Defined Encoder
    Selected bitrate : 768 kBit/s
    Quality : High
    Add ID3 tag : No
    Command line compressor : C:\Program Files (x86)\Exact Audio Copy\FLAC\FLAC.EXE
    Additional command line options : -8 -V -T "ARTIST=%artist%" -T "TITLE=%title%" -T "ALBUM=%albumtitle%" -T "DATE=%year%" -T "TRACKNUMBER=%tracknr%" -T "GENRE=%genre%" -T "PERFORMER=%albuminterpret%" -T "COMPOSER=%composer%" %haslyrics%--tag-from-file=LYRICS="%lyricsfile%"%haslyrics% -T "ALBUMARTIST=%albumartist%" -T "DISCNUMBER=%cdnumber%" -T "TOTALDISCS=%totalcds%" -T "TOTALTRACKS=%numtracks%" -T "COMMENT=%comment%" %source% -o %dest%
    TOC of the extracted CD
    Track | Start | Length | Start sector | End sector
    ---------------------------------------------------------
    1 | 0:00.00 | 11:56.17 | 0 | 53716
    2 | 11:56.17 | 10:29.33 | 53717 | 100924
    3 | 22:25.50 | 14:35.55 | 100925 | 166604
    4 | 37:01.30 | 6:50.27 | 166605 | 197381
    5 | 43:51.57 | 7:09.43 | 197382 | 229599
    6 | 51:01.25 | 2:02.15 | 229600 | 238764
    7 | 53:03.40 | 7:17.42 | 238765 | 271581
    8 | 60:21.07 | 3:04.35 | 271582 | 285416
    9 | 63:25.42 | 3:45.53 | 285417 | 302344
    Track 1
    Filename C:\Users\matt\Documents\CD Rips\Rachmaninoff - Symphonic Dances - Eiji Oue - Reference Records\01 - Symphonic Dances- non allegro.wav
    Pre-gap length 0:00:02.00
    Peak level 97.5 %
    Extraction speed 3.5 X
    Track quality 100.0 %
    Test CRC A90738A7
    Copy CRC A90738A7
    Accurately ripped (confidence 6) [6BF5A165] (AR v2)
    Copy OK
    Track 2
    Filename C:\Users\matt\Documents\CD Rips\Rachmaninoff - Symphonic Dances - Eiji Oue - Reference Records\02 - Symphonic Dances- andante con moto (tempo si valse).wav
    Peak level 96.6 %
    Extraction speed 4.0 X
    Track quality 99.9 %
    Test CRC 03C0C107
    Copy CRC 03C0C107
    Accurately ripped (confidence 6) [58D43893] (AR v2)
    Copy OK
    Track 3
    Filename C:\Users\matt\Documents\CD Rips\Rachmaninoff - Symphonic Dances - Eiji Oue - Reference Records\03 - Symphonic Dances- lento assai.wav
    Peak level 97.9 %
    Extraction speed 5.1 X
    Track quality 100.0 %
    Test CRC D706B1EA
    Copy CRC D706B1EA
    Accurately ripped (confidence 5) [21894611] (AR v2)
    Copy OK
    Track 4
    Filename C:\Users\matt\Documents\CD Rips\Rachmaninoff - Symphonic Dances - Eiji Oue - Reference Records\04 - Vocalise.wav
    Pre-gap length 0:00:03.20
    Peak level 49.4 %
    Extraction speed 4.8 X
    Track quality 99.9 %
    Test CRC 86764C26
    Copy CRC 86764C26
    Accurately ripped (confidence 6) [82C45E8E] (AR v2)
    Copy OK
    Track 5
    Filename C:\Users\matt\Documents\CD Rips\Rachmaninoff - Symphonic Dances - Eiji Oue - Reference Records\05 - Études-tablaux- The Sea and the Seagulls.wav
    Peak level 61.9 %
    Extraction speed 5.1 X
    Track quality 99.9 %
    Test CRC BB977003
    Copy CRC BB977003
    Accurately ripped (confidence 6) [EC79A2F6] (AR v2)
    Copy OK
    Track 6
    Filename C:\Users\matt\Documents\CD Rips\Rachmaninoff - Symphonic Dances - Eiji Oue - Reference Records\06 - Études-tablaux- The Fair.wav
    Peak level 95.6 %
    Extraction speed 4.8 X
    Track quality 100.0 %
    Test CRC 7BFA92BC
    Copy CRC 7BFA92BC
    Accurately ripped (confidence 6) [BFFA2D6D] (AR v2)
    Copy OK
    Track 7
    Filename C:\Users\matt\Documents\CD Rips\Rachmaninoff - Symphonic Dances - Eiji Oue - Reference Records\07 - Études-tablaux- Funural March.wav
    Peak level 86.8 %
    Extraction speed 5.4 X
    Track quality 99.9 %
    Test CRC 81333A9F
    Copy CRC 81333A9F
    Accurately ripped (confidence 5) [28CA61F4] (AR v2)
    Copy OK
    Track 8
    Filename C:\Users\matt\Documents\CD Rips\Rachmaninoff - Symphonic Dances - Eiji Oue - Reference Records\08 - Études-tablaux- Little Red Riding Hood and the Wolf.wav
    Peak level 79.7 %
    Extraction speed 5.7 X
    Track quality 100.0 %
    Test CRC D924BF3E
    Copy CRC D924BF3E
    Accurately ripped (confidence 6) [69949FEE] (AR v2)
    Copy OK
    Track 9
    Filename C:\Users\matt\Documents\CD Rips\Rachmaninoff - Symphonic Dances - Eiji Oue - Reference Records\09 - Études-tablaux- March.wav
    Peak level 97.7 %
    Extraction speed 6.0 X
    Track quality 100.0 %
    Test CRC CF03C977
    Copy CRC CF03C977
    Accurately ripped (confidence 6) [FEB101EF] (AR v2)
    Copy OK
    All tracks accurately ripped
    No errors occurred
    End of status report
    ---- CUETools DB Plugin V2.1.3
    [CTDB TOCID: eGQgsT0l63Tevy7VIBNtFe.vdB4-] found, Submit result: already submitted
    [c0a75e9e] (42/42) Accurately ripped
    ==== Log checksum F2DD4E88AFD69141B7295437F4651B5779A27F489D001B688A7A61356B42BF7D ====

    auCDtect Task Manager log / Отчёт auCDtect Task Manager

    -----------------------
    DON'T MODIFY THIS FILE
    -----------------------
    PERFORMER: auCDtect Task Manager, ver. 1.5.1RC3 build 1.5.1.4
    Copyright (c) 2008-2010 y-soft. All rights reserved
    ANALYZER: auCDtect: CD records authenticity detector, version 0.8.2
    Copyright (c) 2004 Oleg Berngardt. All rights reserved.
    Copyright (c) 2004 Alexander Djourik. All rights reserved.
    FILE: 04 - Vocalise.flac
    Size: 32587087 Hash: F1C1C28367C9E272673A942BE702157C Accuracy: -m0
    Conclusion: CDDA 100%
    Signature: A8B05C43F6450347D91B256D1AEAD7A368881C89
    FILE: 03 - Symphonic dances - III. Lento assai. - Allegro vivace.flac
    Size: 68879583 Hash: 43B4C4D9859B0F0789F98846B65DD93B Accuracy: -m0
    Conclusion: CDDA 100%
    Signature: D3E8329A843D368D2AA82854690FCC1EC82D1F7C
    FILE: 02 - Symphonic dances - II. Andante con moto (Tempo di Valse).flac
    Size: 44198268 Hash: CF3942B4E1B95D961715BAD5FE854189 Accuracy: -m0
    Conclusion: CDDA 100%
    Signature: C45DCBDB146871169834F350ADC39C4F81519826
    FILE: 01 - Symphonic dances - I. Non allegro. - Lento.flac
    Size: 51924694 Hash: FBFB7E119E32266ECC8E96107F09AA27 Accuracy: -m0
    Conclusion: CDDA 100%
    Signature: 8CBA32F92B2C07A3FDB277F226104D7523AB4526
    FILE: 09 - 5 Etudes-tableaux (orch. di Respighi) - 5. Marche.flac
    Size: 18608702 Hash: B9C3142BEF75B07C2B81553844CC75B8 Accuracy: -m0
    Conclusion: CDDA 100%
    Signature: 16776A870289C4416B34251D2F4EE4C0384CB2FB
    FILE: 08 - 5 Etudes-tableaux (orch. di Respighi) - 4. Le chaperon rouge et le loup.flac
    Size: 13891586 Hash: F9BAAD2A4CC4F5E9994C00D82E07D532 Accuracy: -m0
    Conclusion: CDDA 100%
    Signature: DBBEBFD913C50DD644CC97E24270BD0EDF48E69F
    FILE: 07 - 5 Etudes-tableaux (orch. di Respighi) - 3. Marche funebre.flac
    Size: 28287662 Hash: C650DC72E1AD42CD5F072ACF1D00F0DC Accuracy: -m0
    Conclusion: CDDA 100%
    Signature: 3A3A19B2DD81D45117B4595733609E31D35D1DE9
    FILE: 06 - 5 Etudes-tableaux (orch. di Respighi) - 2. La foire.flac
    Size: 12228900 Hash: 1E4C458DCBE58E3FE3E192B9AF9CDDFD Accuracy: -m0
    Conclusion: CDDA 100%
    Signature: 504CA7D05AE808112D7676C7D163BB4AF5A2BC3F
    FILE: 05 - 5 Etudes-tableaux (orch. di Respighi) - 1. La mer et les mouettes.flac
    Size: 29760189 Hash: 5131F1BDD21592C3A766A0CCF03F868B Accuracy: -m0
    Conclusion: CDDA 100%
    Signature: 9E038EE4646048ECFC5DB0FA94111CC4764C1CEF

    CUETools log / Отчёт CUETools

    [CUETools log; Date: 07.08.2015 20:08:48; Version: 2.1.4]
    HDCD: peak extend: yes, transient filter: some, gain: -4,0dB..0,0dB
    [AccurateRip ID: 001c2c42-00c47e2a-750fbf09] found.
    Track [ CRC | V2 ] Status
    01 [4b8fdcdd|6bf5a165] (036+036/164) Accurately ripped
    02 [42533c2c|58d43893] (035+036/162) Accurately ripped
    03 [a4049538|21894611] (035+035/162) Accurately ripped
    04 [bc2225e0|82c45e8e] (034+036/161) Accurately ripped
    05 [5989cc77|ec79a2f6] (034+036/159) Accurately ripped
    06 [8d375704|bffa2d6d] (034+036/161) Accurately ripped
    07 [65182601|28ca61f4] (034+035/159) Accurately ripped
    08 [1f68a5a9|69949fee] (034+036/159) Accurately ripped
    09 [30ff1813|feb101ef] (034+036/161) Accurately ripped
    Offsetted by -12:
    01 [c2856460] (008/164) Accurately ripped
    02 [33c12fca] (006/162) Accurately ripped
    03 [b4894d9e] (006/162) Accurately ripped
    04 [dabeb7a3] (006/161) Accurately ripped
    05 [8b87c155] (005/159) Accurately ripped
    06 [9515903b] (007/161) Accurately ripped
    07 [a737ba3d] (006/159) Accurately ripped
    08 [7396f294] (006/159) Accurately ripped
    09 [79b8e0ad] (006/161) Accurately ripped
    Offsetted by -6:
    01 [785604fc] (016/164) Accurately ripped
    02 [8f04b6f3] (016/162) Accurately ripped
    03 [1d63cccd] (016/162) Accurately ripped
    04 [522f95ac] (016/161) Accurately ripped
    05 [72f8209f] (016/159) Accurately ripped
    06 [c1367769] (016/161) Accurately ripped
    07 [26eaa96b] (016/159) Accurately ripped
    08 [ff12c402] (016/159) Accurately ripped
    09 [e3bbb7b3] (016/161) Accurately ripped
    Offsetted by 646:
    01 [d6425564] (020/164) Accurately ripped
    02 [10f25542] (021/162) Accurately ripped
    03 [47c3e3bd] (022/162) Accurately ripped
    04 [caeec0f5] (021/161) Accurately ripped
    05 [e80e8019] (021/159) Accurately ripped
    06 [ed477fa1] (021/161) Accurately ripped
    07 [d287c3aa] (021/159) Accurately ripped
    08 [248ff82c] (020/159) Accurately ripped
    09 [4280d5cc] (022/161) Accurately ripped
    Track Peak [ CRC32 ] [W/O NULL] [ LOG ]
    -- 97,9 [822F7B55] [A2C35934]
    01 97,5 [A90738A7] [8510568A] CRC32
    02 96,6 [03C0C107] [203350F3] CRC32
    03 97,9 [D706B1EA] [EF886484] CRC32
    04 49,4 [86764C26] [EB485B7F] CRC32
    05 61,9 [BB977003] [B3095CA0] CRC32
    06 95,6 [7BFA92BC] [A4D9A764] CRC32
    07 86,8 [81333A9F] [5094413A] CRC32
    08 79,7 [D924BF3E] [4970264C] CRC32
    09 97,7 [CF03C977] [1CE09247] CRC32

    CUE sheet

    TITLE "Sergei Rachmaninov: Symphonic dances • Vocalise • Études-tableaux"
    PERFORMER "Eiji Oue"
    REM GENRE Classical
    REM DISCID 750FBF09
    REM COMMENT "ExactAudioCopy v1.0b3"
    FILE "01 - Symphonic dances - I. Non allegro. - Lento.flac" WAVE
    TRACK 01 AUDIO
    TITLE "«Symphonic dances», Op. 45: I. Non allegro. — Lento"
    PERFORMER "Minnesota Orchestra. Eiji Oue, conductor"
    REM DATE 2001
    INDEX 01 00:00:00
    FILE "02 - Symphonic dances - II. Andante con moto (Tempo di Valse).flac" WAVE
    TRACK 02 AUDIO
    TITLE "«Symphonic dances», Op. 45: II. Andante con moto (Tempo di Valse)"
    PERFORMER "Minnesota Orchestra. Eiji Oue, conductor"
    REM DATE 2001
    INDEX 01 00:00:00
    FILE "03 - Symphonic dances - III. Lento assai. - Allegro vivace.flac" WAVE
    TRACK 03 AUDIO
    TITLE "«Symphonic dances», Op. 45: III. Lento assai. — Allegro vivace"
    PERFORMER "Minnesota Orchestra. Eiji Oue, conductor"
    REM DATE 2001
    INDEX 01 00:00:00
    TRACK 04 AUDIO
    TITLE "Vocalise, Op. 34 No. 14"
    PERFORMER "Minnesota Orchestra. Eiji Oue, conductor"
    REM DATE 2001
    INDEX 00 14:32:35
    FILE "04 - Vocalise.flac" WAVE
    INDEX 01 00:00:00
    FILE "05 - 5 Etudes-tableaux (orch. Respighi) - 1. La mer et les mouettes.flac" WAVE
    TRACK 05 AUDIO
    TITLE "5 Études-tableaux (orch. Respighi, P 160): 1. La mer et les mouettes (Op. 39 No. 2)"
    PERFORMER "Minnesota Orchestra. Eiji Oue, conductor"
    REM DATE 2001
    INDEX 01 00:00:00
    FILE "06 - 5 Etudes-tableaux (orch. Respighi) - 2. La foire.flac" WAVE
    TRACK 06 AUDIO
    TITLE "5 Études-tableaux (orch. Respighi, P 160): 2. La foire (Op. 33 No. 4)"
    PERFORMER "Minnesota Orchestra. Eiji Oue, conductor"
    REM DATE 2001
    INDEX 01 00:00:00
    FILE "07 - 5 Etudes-tableaux (orch. Respighi) - 3. Marche funebre.flac" WAVE
    TRACK 07 AUDIO
    TITLE "5 Études-tableaux (orch. Respighi, P 160): 3. Marche funèbre (Op. 39 No. 7)"
    PERFORMER "Minnesota Orchestra. Eiji Oue, conductor"
    REM DATE 2001
    INDEX 01 00:00:00
    FILE "08 - 5 Etudes-tableaux (orch. Respighi) - 4. Le chaperon rouge et le loup.flac" WAVE
    TRACK 08 AUDIO
    TITLE "5 Études-tableaux (orch. Respighi, P 160): 4. Le chaperon rouge et le loup (Op. 39 No. 6)"
    PERFORMER "Minnesota Orchestra. Eiji Oue, conductor"
    REM DATE 2001
    INDEX 01 00:00:00
    FILE "09 - 5 Etudes-tableaux (orch. Respighi) - 5. Marche.flac" WAVE
    TRACK 09 AUDIO
    TITLE "5 Études-tableaux (orch. Respighi, P 160): 5. Marche (Op. 39 No. 9)"
    PERFORMER "Minnesota Orchestra. Eiji Oue, conductor"
    REM DATE 2001
    INDEX 01 00:00:00



  • Показать сообщения:    

    Текущее время: 11-Дек 16:55

    Часовой пояс: UTC + 3


    Вы не можете начинать темы
    Вы не можете отвечать на сообщения
    Вы не можете редактировать свои сообщения
    Вы не можете удалять свои сообщения
    Вы не можете голосовать в опросах
    Вы не можете прикреплять файлы к сообщениям
    Вы не можете скачивать файлы