(Classical) Johann Sebastian Bach · Missae Breves, BWV 233–236 (Cantus Cölln/Colln, K. Junghänel/Junghanel) · 2007, FLAC (tracks+.cue) lossless


Статистика раздачи [Обновить пиров]
Размер:  502 MB   |    Зарегистрирован:  8 месяцев 15 дней   |    Скачан:  0 раз

Полного источника не было: Никогда

 
   
 
 
 

[Цитировать]

Johann Sebastian Bach
Missae Breves

Жанр: classical
Страна-производитель диска: Austria
Год издания диска: 2007
Издатель: Harmonia Mundi
Номер по каталогу: HMC 901939.40
Дата записи: 2007
Аудиокодек: FLAC
Тип рипа: tracks+.cue
Битрейт аудио: lossless
Продолжительность: 01:50:46
Источник: скачано с what.cd
Буклет в содержимом раздачи есть, плоховатого качества
Исполнители:
Cantus Cölln
Konrad Junghänel

CD 1

Missa in A major, BWV 234
01. 1. Kyrie eleison (3:05)
02. 2. Christe eleison (1:55)
03. 3. Kyrie eleison (1:38)
04. 4. Gloria... et in terra pax (5:25)
05. 5. Domine Deus (6:00)
06. 6. Qui tollis peccata mundi (6:46)
07. 7. Quoniam tu solus (3:50)
08. 8. Cum sancto Spiritu (3:25)
Missa in G major, BWV 236
09. 1. Kyrie eleison – Christe eleison – Kyrie eleison (3:30)
10. 2. Gloria in excelsis (4:51)
11. 3. Gratias (4:42)
12. 4. Domine Deus (4:40)
13. 5. Quoniam (5:29)
14. 6. Cum sancto Spiritu (3:50)

Лог создания рипа

Exact Audio Copy V0.99 prebeta 5 from 4. May 2009
EAC extraction logfile from 14. October 2010, 10:04
Cantus Coelln, Konrad Junghaenel / J. S. Bach : Missae breves (Disc 1 of 2)
Used drive : TSSTcorpCDDVDW TS-H653N Adapter: 2 ID: 0
Read mode : Secure
Utilize accurate stream : Yes
Defeat audio cache : Yes
Make use of C2 pointers : No
Read offset correction : 6
Overread into Lead-In and Lead-Out : No
Fill up missing offset samples with silence : Yes
Delete leading and trailing silent blocks : No
Null samples used in CRC calculations : Yes
Used interface : Native Win32 interface for Win NT & 2000
Gap handling : Appended to previous track
Used output format : User Defined Encoder
Selected bitrate : 768 kBit/s
Quality : High
Add ID3 tag : No
Command line compressor : E:\portable\PortableApps\Exact Audio Copy\FLAC\FLAC.EXE
Additional command line options : -V -8 -T "artist=%a" -T "title=%t" -T "album=%g" -T "date=%y" -T "tracknumber=%n" -T "genre=%m" %s
TOC of the extracted CD
Track | Start | Length | Start sector | End sector
---------------------------------------------------------
1 | 0:00.00 | 3:05.06 | 0 | 13880
2 | 3:05.06 | 1:54.46 | 13881 | 22476
3 | 4:59.52 | 1:37.56 | 22477 | 29807
4 | 6:37.33 | 5:24.49 | 29808 | 54156
5 | 12:02.07 | 6:00.37 | 54157 | 81193
6 | 18:02.44 | 6:45.55 | 81194 | 111623
7 | 24:48.24 | 3:49.58 | 111624 | 128856
8 | 28:38.07 | 3:25.17 | 128857 | 144248
9 | 32:03.24 | 3:29.58 | 144249 | 159981
10 | 35:33.07 | 4:51.00 | 159982 | 181806
11 | 40:24.07 | 4:42.36 | 181807 | 202992
12 | 45:06.43 | 4:40.09 | 202993 | 224001
13 | 49:46.52 | 5:29.00 | 224002 | 248676
14 | 55:15.52 | 3:50.05 | 248677 | 265931
Track 1
Filename E:\portable\Documents\Music\EAC Rips\Cantus Coelln, Konrad Junghaenel - 2006 - J. S. Bach - Missae breves (Disc 1 of 2)\01-Cantus Coelln, Konrad Junghaenel-Missa in A major BWV234 1. Kyrie.wav
Pre-gap length 0:00:02.00
Peak level 68.5 %
Track quality 100.0 %
Test CRC CBD94EC1
Copy CRC CBD94EC1
Accurately ripped (confidence 7) [DD3667AD]
Copy OK
Track 2
Filename E:\portable\Documents\Music\EAC Rips\Cantus Coelln, Konrad Junghaenel - 2006 - J. S. Bach - Missae breves (Disc 1 of 2)\02-Cantus Coelln, Konrad Junghaenel-Missa in A major BWV234 2. Christe eleison.wav
Peak level 72.4 %
Track quality 100.0 %
Test CRC E61E8CCD
Copy CRC E61E8CCD
Accurately ripped (confidence 7) [7C54B7DA]
Copy OK
Track 3
Filename E:\portable\Documents\Music\EAC Rips\Cantus Coelln, Konrad Junghaenel - 2006 - J. S. Bach - Missae breves (Disc 1 of 2)\03-Cantus Coelln, Konrad Junghaenel-Missa in A major BWV234 3. Kyrie II.wav
Peak level 67.2 %
Track quality 100.0 %
Test CRC 20B35657
Copy CRC 20B35657
Accurately ripped (confidence 7) [7297A7B1]
Copy OK
Track 4
Filename E:\portable\Documents\Music\EAC Rips\Cantus Coelln, Konrad Junghaenel - 2006 - J. S. Bach - Missae breves (Disc 1 of 2)\04-Cantus Coelln, Konrad Junghaenel-Missa in A major BWV234 4. Gloria - Et in terra pax.wav
Pre-gap length 0:00:02.93
Peak level 80.8 %
Track quality 100.0 %
Test CRC AF9CBED9
Copy CRC AF9CBED9
Accurately ripped (confidence 7) [FAFBC3C8]
Copy OK
Track 5
Filename E:\portable\Documents\Music\EAC Rips\Cantus Coelln, Konrad Junghaenel - 2006 - J. S. Bach - Missae breves (Disc 1 of 2)\05-Cantus Coelln, Konrad Junghaenel-Missa in A major BWV234 5. Domine Deus.wav
Pre-gap length 0:00:01.73
Peak level 50.1 %
Track quality 100.0 %
Test CRC 109D6CE4
Copy CRC 109D6CE4
Accurately ripped (confidence 7) [913C8781]
Copy OK
Track 6
Filename E:\portable\Documents\Music\EAC Rips\Cantus Coelln, Konrad Junghaenel - 2006 - J. S. Bach - Missae breves (Disc 1 of 2)\06-Cantus Coelln, Konrad Junghaenel-Missa in A major BWV234 6. Qui tollis peccata mundi.wav
Pre-gap length 0:00:02.54
Peak level 72.1 %
Track quality 100.0 %
Test CRC 2944BA1F
Copy CRC 2944BA1F
Accurately ripped (confidence 7) [1BEE12F9]
Copy OK
Track 7
Filename E:\portable\Documents\Music\EAC Rips\Cantus Coelln, Konrad Junghaenel - 2006 - J. S. Bach - Missae breves (Disc 1 of 2)\07-Cantus Coelln, Konrad Junghaenel-Missa in A major BWV234 7. Quoniam tu solus.wav
Pre-gap length 0:00:03.09
Peak level 60.9 %
Track quality 99.9 %
Test CRC C85063A3
Copy CRC C85063A3
Accurately ripped (confidence 7) [A80342BF]
Copy OK
Track 8
Filename E:\portable\Documents\Music\EAC Rips\Cantus Coelln, Konrad Junghaenel - 2006 - J. S. Bach - Missae breves (Disc 1 of 2)\08-Cantus Coelln, Konrad Junghaenel-Missa in A major BWV234 8. Cum Sancto Spiritu.wav
Peak level 100.0 %
Track quality 99.9 %
Test CRC 6AE5B02A
Copy CRC 6AE5B02A
Accurately ripped (confidence 7) [D8CC77EE]
Copy OK
Track 9
Filename E:\portable\Documents\Music\EAC Rips\Cantus Coelln, Konrad Junghaenel - 2006 - J. S. Bach - Missae breves (Disc 1 of 2)\09-Cantus Coelln, Konrad Junghaenel-Missa in G major BWV236 1. Kyrie.wav
Pre-gap length 0:00:07.01
Peak level 83.8 %
Track quality 100.0 %
Test CRC 0D77D7B0
Copy CRC 0D77D7B0
Accurately ripped (confidence 7) [B81F1B64]
Copy OK
Track 10
Filename E:\portable\Documents\Music\EAC Rips\Cantus Coelln, Konrad Junghaenel - 2006 - J. S. Bach - Missae breves (Disc 1 of 2)\10-Cantus Coelln, Konrad Junghaenel-Missa in G major BWV236 2. Gloria.wav
Pre-gap length 0:00:02.73
Peak level 83.8 %
Track quality 100.0 %
Test CRC 671425D1
Copy CRC 671425D1
Accurately ripped (confidence 7) [71B13D29]
Copy OK
Track 11
Filename E:\portable\Documents\Music\EAC Rips\Cantus Coelln, Konrad Junghaenel - 2006 - J. S. Bach - Missae breves (Disc 1 of 2)\11-Cantus Coelln, Konrad Junghaenel-Missa in G major BWV236 3. Gratias.wav
Pre-gap length 0:00:02.73
Peak level 56.7 %
Track quality 100.0 %
Test CRC FDD4DDC7
Copy CRC FDD4DDC7
Accurately ripped (confidence 7) [7173AE37]
Copy OK
Track 12
Filename E:\portable\Documents\Music\EAC Rips\Cantus Coelln, Konrad Junghaenel - 2006 - J. S. Bach - Missae breves (Disc 1 of 2)\12-Cantus Coelln, Konrad Junghaenel-Missa in G major BWV236 4. Domine Deus.wav
Pre-gap length 0:00:01.97
Peak level 67.7 %
Track quality 100.0 %
Test CRC 62F07DFA
Copy CRC 62F07DFA
Accurately ripped (confidence 7) [CBEDDD7C]
Copy OK
Track 13
Filename E:\portable\Documents\Music\EAC Rips\Cantus Coelln, Konrad Junghaenel - 2006 - J. S. Bach - Missae breves (Disc 1 of 2)\13-Cantus Coelln, Konrad Junghaenel-Missa in G major BWV236 5. Quoniam.wav
Pre-gap length 0:00:01.04
Peak level 43.8 %
Track quality 100.0 %
Test CRC 559C507A
Copy CRC 559C507A
Accurately ripped (confidence 7) [91360AAB]
Copy OK
Track 14
Filename E:\portable\Documents\Music\EAC Rips\Cantus Coelln, Konrad Junghaenel - 2006 - J. S. Bach - Missae breves (Disc 1 of 2)\14-Cantus Coelln, Konrad Junghaenel-Missa in G major BWV236 6. Cum Sancto Spiritu.wav
Peak level 91.9 %
Track quality 100.0 %
Test CRC 3051362E
Copy CRC 3051362E
Accurately ripped (confidence 7) [A068C4F9]
Copy OK
All tracks accurately ripped
No errors occurred
End of status report

Содержание индексной карты (.CUE)

REM DATE 2007
REM DISCID C10DD90E
REM COMMENT "ExactAudioCopy v0.99pb5"
PERFORMER "Cantus Cölln · Konrad Junghänel"
TITLE "Missae Breves, BWV 234, 236"
FILE "01. 1. Kyrie eleison.wav" WAVE
TRACK 01 AUDIO
TITLE "1. Kyrie eleison"
PERFORMER "Cantus Cölln · Konrad Junghänel"
INDEX 01 00:00:00
FILE "02. 2. Christe eleison.wav" WAVE
TRACK 02 AUDIO
TITLE "2. Christe eleison"
PERFORMER "Cantus Cölln · Konrad Junghänel"
FLAGS DCP
INDEX 01 00:00:00
FILE "03. 3. Kyrie eleison.wav" WAVE
TRACK 03 AUDIO
TITLE "3. Kyrie eleison"
PERFORMER "Cantus Cölln · Konrad Junghänel"
FLAGS DCP
INDEX 01 00:00:00
TRACK 04 AUDIO
TITLE "4. Gloria... et in terra pax"
PERFORMER "Cantus Cölln · Konrad Junghänel"
INDEX 00 01:34:61
FILE "04. 4. Gloria... et in terra pax.wav" WAVE
INDEX 01 00:00:00
TRACK 05 AUDIO
TITLE "5. Domine Deus"
PERFORMER "Cantus Cölln · Konrad Junghänel"
INDEX 00 05:22:69
FILE "05. 5. Domine Deus.wav" WAVE
INDEX 01 00:00:00
TRACK 06 AUDIO
TITLE "6. Qui tollis peccata mundi"
PERFORMER "Cantus Cölln · Konrad Junghänel"
INDEX 00 05:57:71
FILE "06. 6. Qui tollis peccata mundi.wav" WAVE
INDEX 01 00:00:00
TRACK 07 AUDIO
TITLE "7. Quoniam tu solus"
PERFORMER "Cantus Cölln · Konrad Junghänel"
INDEX 00 06:42:48
FILE "07. 7. Quoniam tu solus.wav" WAVE
INDEX 01 00:00:00
FILE "08. 8. Cum sancto Spiritu.wav" WAVE
TRACK 08 AUDIO
TITLE "8. Cum sancto Spiritu"
PERFORMER "Cantus Cölln · Konrad Junghänel"
INDEX 01 00:00:00
TRACK 09 AUDIO
TITLE "1. Kyrie eleison – Christe eleison – Kyrie eleison"
PERFORMER "Cantus Cölln · Konrad Junghänel"
INDEX 00 03:18:16
FILE "09. 1. Kyrie eleison – Christe eleison – Kyrie eleison.wav" WAVE
INDEX 01 00:00:00
TRACK 10 AUDIO
TITLE "2. Gloria in excelsis"
PERFORMER "Cantus Cölln · Konrad Junghänel"
INDEX 00 03:27:03
FILE "10. 2. Gloria in excelsis.wav" WAVE
INDEX 01 00:00:00
TRACK 11 AUDIO
TITLE "3. Gratias"
PERFORMER "Cantus Cölln · Konrad Junghänel"
INDEX 00 04:48:20
FILE "11. 3. Gratias.wav" WAVE
INDEX 01 00:00:00
TRACK 12 AUDIO
TITLE "4. Domine Deus"
PERFORMER "Cantus Cölln · Konrad Junghänel"
INDEX 00 04:40:38
FILE "12. 4. Domine Deus.wav" WAVE
INDEX 01 00:00:00
TRACK 13 AUDIO
TITLE "5. Quoniam"
PERFORMER "Cantus Cölln · Konrad Junghänel"
INDEX 00 04:39:06
FILE "13. 5. Quoniam.wav" WAVE
INDEX 01 00:00:00
FILE "14. 6. Cum sancto Spiritu.wav" WAVE
TRACK 14 AUDIO
TITLE "6. Cum sancto Spiritu"
PERFORMER "Cantus Cölln · Konrad Junghänel"
INDEX 01 00:00:00

CD 2

Missa in G minor, BWV 235
01. 1. Kyrie eleison – Christe eleison – Kyrie eleison (7:32)
02. 2. Gloria in excelsis (2:55)
03. 3. Gratias (3:21)
04. 4. Domine Fili (5:57)
05. 5. Qui tollis – Quoniam (4:14)
06. 6. Cum sancto Spiritu (4:14)
Missa in F major, BWV 233
07. 1. Kyrie (3:38)
08. 2. Gloria (5:01)
09. 3. Domine Deus (3:27)
10. 4. Qui tollis (5:01)
11. 5. Quoniam (3:50)
12. 6. Cum sancto Spiritu (2:31)

Лог создания рипа

Exact Audio Copy V0.99 prebeta 5 from 4. May 2009
EAC extraction logfile from 14. October 2010, 10:44
Cantus Coelln, Konrad Junghaenel / J. S. Bach : Missae breves (Disc 2 of 2)
Used drive : TSSTcorpCDDVDW TS-H653N Adapter: 2 ID: 0
Read mode : Secure
Utilize accurate stream : Yes
Defeat audio cache : Yes
Make use of C2 pointers : No
Read offset correction : 6
Overread into Lead-In and Lead-Out : No
Fill up missing offset samples with silence : Yes
Delete leading and trailing silent blocks : No
Null samples used in CRC calculations : Yes
Used interface : Native Win32 interface for Win NT & 2000
Gap handling : Appended to previous track
Used output format : User Defined Encoder
Selected bitrate : 768 kBit/s
Quality : High
Add ID3 tag : No
Command line compressor : E:\portable\PortableApps\Exact Audio Copy\FLAC\FLAC.EXE
Additional command line options : -V -8 -T "artist=%a" -T "title=%t" -T "album=%g" -T "date=%y" -T "tracknumber=%n" -T "genre=%m" %s
TOC of the extracted CD
Track | Start | Length | Start sector | End sector
---------------------------------------------------------
1 | 0:00.00 | 7:32.19 | 0 | 33918
2 | 7:32.19 | 2:54.64 | 33919 | 47032
3 | 10:27.08 | 3:20.63 | 47033 | 62095
4 | 13:47.71 | 5:56.60 | 62096 | 88855
5 | 19:44.56 | 4:13.47 | 88856 | 107877
6 | 23:58.28 | 4:13.57 | 107878 | 126909
7 | 28:12.10 | 3:38.28 | 126910 | 143287
8 | 31:50.38 | 5:00.51 | 143288 | 165838
9 | 36:51.14 | 3:26.69 | 165839 | 181357
10 | 40:18.08 | 5:00.70 | 181358 | 203927
11 | 45:19.03 | 3:50.07 | 203928 | 221184
12 | 49:09.10 | 2:30.59 | 221185 | 232493
Track 1
Filename E:\portable\Documents\Music\EAC Rips\Cantus Coelln, Konrad Junghaenel - 2006 - J. S. Bach - Missae breves (Disc 2 of 2)\01-Cantus Coelln, Konrad Junghaenel-Missa in G minor BWV235 1. Kyrie.wav
Pre-gap length 0:00:02.00
Peak level 75.6 %
Track quality 99.9 %
Test CRC 02F09DB1
Copy CRC 02F09DB1
Accurately ripped (confidence 7) [FA82F65E]
Copy OK
Track 2
Filename E:\portable\Documents\Music\EAC Rips\Cantus Coelln, Konrad Junghaenel - 2006 - J. S. Bach - Missae breves (Disc 2 of 2)\02-Cantus Coelln, Konrad Junghaenel-Missa in G minor BWV235 2. Gloria.wav
Pre-gap length 0:00:03.00
Peak level 69.4 %
Track quality 100.0 %
Test CRC 2BF179EC
Copy CRC 2BF179EC
Accurately ripped (confidence 7) [871EEFEA]
Copy OK
Track 3
Filename E:\portable\Documents\Music\EAC Rips\Cantus Coelln, Konrad Junghaenel - 2006 - J. S. Bach - Missae breves (Disc 2 of 2)\03-Cantus Coelln, Konrad Junghaenel-Missa in G minor BWV235 3. Gratias.wav
Pre-gap length 0:00:03.42
Peak level 36.2 %
Track quality 100.0 %
Test CRC 98A280F0
Copy CRC 98A280F0
Accurately ripped (confidence 7) [0A49BBBC]
Copy OK
Track 4
Filename E:\portable\Documents\Music\EAC Rips\Cantus Coelln, Konrad Junghaenel - 2006 - J. S. Bach - Missae breves (Disc 2 of 2)\04-Cantus Coelln, Konrad Junghaenel-Missa in G minor BWV235 4. Domine Fili.wav
Pre-gap length 0:00:02.22
Peak level 51.7 %
Track quality 100.0 %
Test CRC A9727C26
Copy CRC A9727C26
Accurately ripped (confidence 7) [28B81A94]
Copy OK
Track 5
Filename E:\portable\Documents\Music\EAC Rips\Cantus Coelln, Konrad Junghaenel - 2006 - J. S. Bach - Missae breves (Disc 2 of 2)\05-Cantus Coelln, Konrad Junghaenel-Missa in G minor BWV235 5. Qui tollis.wav
Pre-gap length 0:00:04.09
Peak level 40.0 %
Track quality 100.0 %
Test CRC 3D46EE0C
Copy CRC 3D46EE0C
Accurately ripped (confidence 7) [CB7C5292]
Copy OK
Track 6
Filename E:\portable\Documents\Music\EAC Rips\Cantus Coelln, Konrad Junghaenel - 2006 - J. S. Bach - Missae breves (Disc 2 of 2)\06-Cantus Coelln, Konrad Junghaenel-Missa in G minor BWV235 6. Cum Sancto Spiritu.wav
Peak level 78.3 %
Track quality 100.0 %
Test CRC 6D9E2CD4
Copy CRC 6D9E2CD4
Accurately ripped (confidence 7) [4A7581A7]
Copy OK
Track 7
Filename E:\portable\Documents\Music\EAC Rips\Cantus Coelln, Konrad Junghaenel - 2006 - J. S. Bach - Missae breves (Disc 2 of 2)\07-Cantus Coelln, Konrad Junghaenel-Missa in F major BWV233 1. Kyrie.wav
Pre-gap length 0:00:08.73
Peak level 81.3 %
Track quality 100.0 %
Test CRC 98158810
Copy CRC 98158810
Accurately ripped (confidence 7) [75835786]
Copy OK
Track 8
Filename E:\portable\Documents\Music\EAC Rips\Cantus Coelln, Konrad Junghaenel - 2006 - J. S. Bach - Missae breves (Disc 2 of 2)\08-Cantus Coelln, Konrad Junghaenel-Missa in F major BWV233 2. Gloria.wav
Pre-gap length 0:00:02.72
Peak level 94.0 %
Track quality 100.0 %
Test CRC 1780B740
Copy CRC 1780B740
Accurately ripped (confidence 7) [41CED372]
Copy OK
Track 9
Filename E:\portable\Documents\Music\EAC Rips\Cantus Coelln, Konrad Junghaenel - 2006 - J. S. Bach - Missae breves (Disc 2 of 2)\09-Cantus Coelln, Konrad Junghaenel-Missa in F major BWV233 3. Domine Deus.wav
Pre-gap length 0:00:03.14
Peak level 69.8 %
Track quality 100.0 %
Test CRC C4CEBB38
Copy CRC C4CEBB38
Accurately ripped (confidence 7) [277CF023]
Copy OK
Track 10
Filename E:\portable\Documents\Music\EAC Rips\Cantus Coelln, Konrad Junghaenel - 2006 - J. S. Bach - Missae breves (Disc 2 of 2)\10-Cantus Coelln, Konrad Junghaenel-Missa in F major BWV233 4. Qui tollis.wav
Peak level 65.2 %
Track quality 100.0 %
Test CRC 22292957
Copy CRC 22292957
Accurately ripped (confidence 7) [C5080489]
Copy OK
Track 11
Filename E:\portable\Documents\Music\EAC Rips\Cantus Coelln, Konrad Junghaenel - 2006 - J. S. Bach - Missae breves (Disc 2 of 2)\11-Cantus Coelln, Konrad Junghaenel-Missa in F major BWV233 5. Quoniam.wav
Pre-gap length 0:00:01.88
Peak level 52.7 %
Track quality 100.0 %
Test CRC 4EA61DB3
Copy CRC 4EA61DB3
Accurately ripped (confidence 7) [77641C8F]
Copy OK
Track 12
Filename E:\portable\Documents\Music\EAC Rips\Cantus Coelln, Konrad Junghaenel - 2006 - J. S. Bach - Missae breves (Disc 2 of 2)\12-Cantus Coelln, Konrad Junghaenel-Missa in F major BWV233 6. Cum Sancto Spiritu.wav
Peak level 100.0 %
Track quality 99.9 %
Test CRC 21EFE40B
Copy CRC 21EFE40B
Accurately ripped (confidence 7) [9A99A896]
Copy OK
All tracks accurately ripped
No errors occurred
End of status report

Содержание индексной карты (.CUE)

REM DATE 2007
REM DISCID 9A0C1B0C
REM COMMENT "ExactAudioCopy v0.99pb5"
PERFORMER "Cantus Cölln · Konrad Junghänel"
TITLE "Missae Breves, BWV 235, 233"
FILE "01. 1. Kyrie eleison – Christe eleison – Kyrie eleison.wav" WAVE
TRACK 01 AUDIO
TITLE "1. Kyrie eleison – Christe eleison – Kyrie eleison"
PERFORMER "Cantus Cölln · Konrad Junghänel"
INDEX 01 00:00:00
TRACK 02 AUDIO
TITLE "2. Gloria in excelsis"
PERFORMER "Cantus Cölln · Konrad Junghänel"
INDEX 00 07:29:19
FILE "02. 2. Gloria in excelsis.wav" WAVE
INDEX 01 00:00:00
TRACK 03 AUDIO
TITLE "3. Gratias"
PERFORMER "Cantus Cölln · Konrad Junghänel"
INDEX 00 02:51:32
FILE "03. 3. Gratias.wav" WAVE
INDEX 01 00:00:00
TRACK 04 AUDIO
TITLE "4. Domine Fili"
PERFORMER "Cantus Cölln · Konrad Junghänel"
INDEX 00 03:18:46
FILE "04. 4. Domine Fili.wav" WAVE
INDEX 01 00:00:00
TRACK 05 AUDIO
TITLE "5. Qui tollis – Quoniam"
PERFORMER "Cantus Cölln · Konrad Junghänel"
INDEX 00 05:52:53
FILE "05. 5. Qui tollis – Quoniam.wav" WAVE
INDEX 01 00:00:00
FILE "06. 6. Cum sancto Spiritu.wav" WAVE
TRACK 06 AUDIO
TITLE "6. Cum sancto Spiritu"
PERFORMER "Cantus Cölln · Konrad Junghänel"
INDEX 01 00:00:00
TRACK 07 AUDIO
TITLE "1. Kyrie"
PERFORMER "Cantus Cölln · Konrad Junghänel"
INDEX 00 04:05:02
FILE "07. 1. Kyrie.wav" WAVE
INDEX 01 00:00:00
TRACK 08 AUDIO
TITLE "2. Gloria"
PERFORMER "Cantus Cölln · Konrad Junghänel"
INDEX 00 03:35:49
FILE "08. 2. Gloria.wav" WAVE
INDEX 01 00:00:00
TRACK 09 AUDIO
TITLE "3. Domine Deus"
PERFORMER "Cantus Cölln · Konrad Junghänel"
INDEX 00 04:57:40
FILE "09. 3. Domine Deus.wav" WAVE
INDEX 01 00:00:00
FILE "10. 4. Qui tollis.wav" WAVE
TRACK 10 AUDIO
TITLE "4. Qui tollis"
PERFORMER "Cantus Cölln · Konrad Junghänel"
INDEX 01 00:00:00
TRACK 11 AUDIO
TITLE "5. Quoniam"
PERFORMER "Cantus Cölln · Konrad Junghänel"
INDEX 00 04:59:04
FILE "11. 5. Quoniam.wav" WAVE
INDEX 01 00:00:00
FILE "12. 6. Cum sancto Spiritu.wav" WAVE
TRACK 12 AUDIO
TITLE "6. Cum sancto Spiritu"
PERFORMER "Cantus Cölln · Konrad Junghänel"
INDEX 01 00:00:00
[teatrix.ru].t21945.torrent 
Торрент: Зарегистрирован [ 2016-03-20 12:49 ] · 16D07EA03CB749498F96654F09C210B6DEC68950

Скачать .torrent

Скачать

23 KB

Статус: проверено
Скачан: 0 раз
Размер: 502 MB
terms.php



Быстрый ответ

Имя:

      
Для отправки сообщений необходимо включить JavaScript
Показать сообщения:    

Текущее время: 04-Дек 23:22

Часовой пояс: UTC + 3


Вы можете начинать темы
Вы можете отвечать на сообщения
Вы не можете редактировать свои сообщения
Вы не можете удалять свои сообщения
Вы не можете голосовать в опросах
Вы не можете прикреплять файлы к сообщениям
Вы можете скачивать файлы