[TR24][SM][OF] Britten · Bach · Ligeti - Miklos Perenyi - 2012 [ECM New Series] (Classical)


Статистика раздачи [Обновить пиров]
Размер:  575 MB   |    Зарегистрирован:  8 месяцев 21 день   |    Скачан:  1 раз

Полного источника не было: 5 месяцев 20 дней

 
   
 
 
 

[Цитировать]

Britten · Bach · Ligeti / Miklos Perenyi
Формат записи/Источник записи: [TR24][SM][OF]
Наличие водяных знаков: Нет
Издание: ECM New Series 2152
Год издания/переиздания диска: 2012
Жанр: Classical
Издатель(лейбл): © ECM Records GmbH
Продолжительность: 00:57:55
Наличие сканов в содержимом раздачи: Да
Контейнер: FLAC (*.flac)
Тип рипа: tracks
Разрядность: 24/44,1
Формат: WAV (flac.ape.wv)
Количество каналов: 2.0
http://www.qobuz.com/fr-fr/album/britten-bach-ligeti-miklos-perenyi/0002894764166

Треклист

Benjamin Britten (1913-1976)
Third Suite for Cello, Op.87
01 Introduzione: Lento 02:15
02 Marcia: Allegro 01:34
03 Canto: Con moto 01:08
04 Barcarola: Lento 01:12
05 Dialogo: Allegretto 01:09
06 Fuga: Andante espressivo 02:32
07 Recitativo: Fantastico 01:09
08 Moto perpetuo: Presto 00:51
09 Passacaglia: Lento solenne 08:43
Johann Sebastian Bach (1685-1750)
Suite for Cello Solo No.6 in D, BWV 1012
10 Prélude 05:31
11 Allemande 06:34
12 Courante 03:50
13 Sarabande 05:42
14 Gavotte I - II 04:32
15 Gigue 03:56
György Ligeti (1923-2006)
Sonata for Solo Cello
16 Dialogo: Adagio, rubato, cantabile 03:59
17 Capriccio: Presto con slancio 03:35

Исполнитель

Miklós Perényi: violoncello

Dynamic Range Meter

foobar2000 1.2.6 / Dynamic Range Meter 1.1.1
log date: 2015-08-08 09:40:42
--------------------------------------------------------------------------------
Analyzed: Miklós Perényi / Britten, Bach, Ligeti
--------------------------------------------------------------------------------
DR Peak RMS Duration Track
--------------------------------------------------------------------------------
DR12 -5.48 dB -24.09 dB 2:16 01-Third Suite, op. 87: Introduzione. Lento
DR13 -0.63 dB -20.00 dB 1:34 02-Third Suite, op. 87: Marcia. Allegro
DR10 -2.83 dB -20.39 dB 1:09 03-Third Suite, op. 87: Canto. Con moto
DR11 -3.23 dB -21.42 dB 1:13 04-Third Suite, op. 87: Barcarola. Lento
DR14 -2.14 dB -21.21 dB 1:10 05-Third Suite, op. 87: Dialogo. Allegretto
DR12 -0.73 dB -18.57 dB 2:32 06-Third Suite, op. 87: Fuga. Andante espressivo
DR15 -1.14 dB -22.35 dB 1:09 07-Third Suite, op. 87: Recitativo. Fantastico
DR11 -4.47 dB -22.43 dB 0:51 08-Third Suite, op. 87: Moto perpetuo. Presto
DR14 -0.02 dB -20.00 dB 8:43 09-Third Suite, op. 87: Passacaglia. Lento solenne
DR12 -0.85 dB -17.28 dB 5:32 10-Suite VI in D Major BWV 1012: Prelude
DR13 -2.18 dB -20.77 dB 6:34 11-Suite VI in D Major BWV 1012: Allemande
DR12 -2.94 dB -18.13 dB 3:51 12-Suite VI in D Major BWV 1012: Courante
DR12 -5.75 dB -20.96 dB 5:43 13-Suite VI in D Major BWV 1012: Sarabande
DR13 -0.08 dB -16.68 dB 4:32 14-Suite VI in D Major BWV 1012: Gavotte I - II
DR12 -0.94 dB -16.80 dB 3:57 15-Suite VI in D Major BWV 1012: Gigue
DR12 -4.76 dB -22.16 dB 4:00 16-Sonata (1948/53): Dialogo. Adagio, rubato, cantabile
DR11 -1.99 dB -18.20 dB 3:35 17-Sonata (1948/53): Capriccio. Presto con slancio
--------------------------------------------------------------------------------
Number of tracks: 17
Official DR value: DR12
Samplerate: 44100 Hz
Channels: 2
Bits per sample: 24
Bitrate: 1383 kbps
Codec: FLAC
================================================================================
[teatrix.ru].t21946.torrent 
Торрент: Зарегистрирован [ 2016-03-20 12:49 ] · FB10EE104A6A7B620DBF9F8AE1B21B9059248BE8

Скачать .torrent

Скачать

13 KB

Статус: проверено
Скачан: 1 раз
Размер: 575 MB
terms.php



Быстрый ответ

Имя:

      
Для отправки сообщений необходимо включить JavaScript
Показать сообщения:    

Текущее время: 11-Дек 09:08

Часовой пояс: UTC + 3


Вы можете начинать темы
Вы можете отвечать на сообщения
Вы не можете редактировать свои сообщения
Вы не можете удалять свои сообщения
Вы не можете голосовать в опросах
Вы не можете прикреплять файлы к сообщениям
Вы можете скачивать файлы