Франц Шуберт - Фьерабрас (Зальцбургский фестиваль) / Franz Schubert - Fierrabras (Salzburg Festival; Peter Stein, Ingo Metzmacher; Schade, Kleiter, Bernheim, Roschmann, Werba, Zeppenfeld, Kalman, Chappuis, Walser) [2014, Opera, Blu-ray 1080i]


 

[Цитировать]

Франц Шуберт - Фьерабрас / Franz Schubert - Fierrabras
Год выпуска: 2014
Лейбл: C MAJOR, Unitel Classica
Страна-производитель: США
Жанр: Opera
Продолжительность: 02:43:49
Язык: Немецкий
Субтитры: Английские, французские, немецкие, итальянские, испанские, китайские, корейские
Режиссер: Peter Stein (Питер Штайн)
Дирижер: Ingo Metzmacher (Инго Мецмахер)
Исполнители:
Michael Schade (Михаэль Шаде)Фьеррабрас,
Julia Kleiter (Юлия Клайтер)Эмма,
Benjamin Bernheim (Бенджамин Бернхайм)Эгингард,
Dorothea Röschmann (Доротея Рёшманн)Флоринда,
Markus Werba (Маркус Верба)Роланд,
Georg Zeppenfeld (Георг Цеппенфельд)Карл Великий,
Peter Kálmán (Петер Кальман)Боланд,
Marie-Claude Chappuis (Мари-Клод Шаппюи)Марагонд,
Manuel Walser (Мануэль Валcер)Брутамонд
Vienna State Opera Chorus, Vienna Philharmonic Orchestra (Хор и оркестр Венской государственной оперы)
Описание: Написанная за четыре месяца в 1823 г., опера «Фьеррабрас», в силу сложившихся обстоятельств, не была поставлена. Только в 1897 г. ее впервые представили сценически, правда, с большими переделками и сокращениями. Ренессанс «Фьеррабраса» состоялся в 1988 г. в Вене благодаря дирижеру Клаудио Аббадо, под музыкальным руководством которого опера обрела достойную сценическую жизнь.

Оригинальное описание

Fierrabras of 1823 is the last of Franz Schubert’s stage works. Rarely performed to this day, this heroic-romantic opera has now been staged for the first time ever at the Salzburg Festival by famous director Peter Stein. Based on an old French 12th-century epic, the plot depicts the military conflict between Christians and Moors at the time of Charlemagne – as a backdrop to stories of love and friendship that prove to be stronger than war and hatred of otherness.
The strong cast includes the “marvellously expressive miracle Dorothea Röschmann” (Die Zeit) and “Michael Schade, who exudes his exceptional tenor in Fierrabras’s heroic arias” (Der neue Merker). Under the energetic baton of lngo Metzmacher, the Vienna Philharmonic unfold “the melos, the poetry, the sweetness and the dramatic force of Schubert’s highly refined and atmospheric sound worlds” (Kleine Zeitung) in highly romantic fashion.
Recorded live during the Salzburg Festival, 2014.
Об опере
Бонус: «MAKING of...» ФЬЕРРАБРАС
Качество видео: Blu-ray
Формат/Контейнер: BDMV
Видео кодек: MPEG4
Аудио кодек: LPCM, DTS
Видео поток: MPEG-4 Video, 1920x1080, 27944 kbps, 29.970 fps
Аудио поток: LPCM, 2304 kbps, 48 kHz, 2 ch. DTS-HD MA, 3694 kbps, 48 kHz, 5 ch

BD-Info

DISC INFO:
Disc Title: Шуберт - Фьерабрас (Salzburg Festival) (2014) (Blu-ray 1080i, AVC, DTS-HD 5.0)
Disc Size: 47,691,150,232 bytes
Protection: AACS
BD-Java: No
BDInfo: 0.5.8
PLAYLIST REPORT:
Name: 00003.MPLS
Length: 2:43:49.319 (h:m:s.ms)
Size: 44,121,274,368 bytes
Total Bitrate: 35.91 Mbps
VIDEO:
Codec Bitrate Description
----- ------- -----------
MPEG-4 AVC Video 27944 kbps 1080i / 29.970 fps / 16:9 / High Profile 4.1
AUDIO:
Codec Language Bitrate Description
----- -------- ------- -----------
LPCM Audio German 2304 kbps 2.0 / 48 kHz / 2304 kbps / 24-bit
DTS-HD Master Audio German 3694 kbps 5.0 / 48 kHz / 3694 kbps / 24-bit (DTS Core: 5.0 / 48 kHz / 1509 kbps / 24-bit)
SUBTITLES:
Codec Language Bitrate Description
----- -------- ------- -----------
Presentation Graphics German 13.736 kbps
Presentation Graphics English 17.724 kbps
Presentation Graphics French 18.107 kbps
Presentation Graphics Spanish 17.836 kbps
Presentation Graphics Chinese 16.372 kbps
Presentation Graphics Korean 15.868 kbps
Presentation Graphics Japanese 14.653 kbps
FILES:
Name Time In Length Size Total Bitrate
---- ------- ------ ---- -------------
00007.M2TS 0:00:00.000 2:43:31.234 44,111,628,288 35,968
00006.M2TS 2:43:31.234 0:00:09.042 4,823,040 4,267
00001.M2TS 2:43:40.277 0:00:09.042 4,823,040 4,267
Семпл

Скриншоты


Скриншоты доп. материалов




Показать сообщения:    

Текущее время: 11-Дек 14:59

Часовой пояс: UTC + 3


Вы не можете начинать темы
Вы не можете отвечать на сообщения
Вы не можете редактировать свои сообщения
Вы не можете удалять свои сообщения
Вы не можете голосовать в опросах
Вы не можете прикреплять файлы к сообщениям
Вы не можете скачивать файлы