Встречи с Патрисией Каас / Moments partages avec Patricia Kaas (Брижитт Юо-Деллануа / Brigitte Huault-Dellanoy, Жюльен Блош / Julien Bloch) [2013, документальный, музыка, DVB] Original (Fre) + Sub (Rus, Eng, Fre, Deu)


Статистика раздачи [Обновить пиров]
Размер:  1.15 GB   |    Зарегистрирован:  8 месяцев 18 дней   |    Скачан:  0 раз

Полного источника не было: Никогда

 
   
 
 
 

[Цитировать]

Встречи с Патрисией Каас
Moments partagés avec Patricia Kaas- Дата/Год выпуска: 2013
Страна: Франция
Жанр: документальный, музыка
Продолжительность: 00:52:25
Перевод: Субтитры
Доп. инфо о переводе: русский перевод И.Рыбкиной, Éclair Group
Русские субтитры: естьФормат субтитров: prerendered (IDX+SUB)
Доп. информация о субтитрах: русские, английские, французские, немецкие, нидерландские, румынские
Оригинальная аудиодорожка: французский
Режиссер: Брижитт Юо-Деллануа / Brigitte Huault-Dellanoy, Жюльен Блош / Julien Bloch
Телеканал: TV5MONDE Europe
Описание: Французские документалисты проследовали по 35 странам вместе с Патрисией Каас во время ее турне "Каас поет Пиаф". В отелях и за сценой между выступлениями Каас делится своими мыслями о признании и одиночестве…
Звучат фрагменты песен: Song for the Little Sparrow, Mon Dieu, La vie en rose, L'accordeoniste, Padam Padam, Les blouses blanches, C'est un gars, Milord, Je t'ai dans la peau, Hymne a l'amour, La belle histoire d'amour, Mon vieux Lucien, Non, je ne regretted rien, Mon mec a moi, Entrer dans la lumiere, Il me dit que je suis belle, Les hommes qui passent, Avec se soleil, Mademoiselle chante le blues.
Доп. информация: Hot Bird (13.0°E) DVB-S

качество: DVB
формат: MKV
Видео: MPEG Video 2, 720x576@1024x576 (16:9), 25 fps, ~2878 kbps avg, 0.278 bit/pixel
Аудио: MPEG Audio 2, 2 ch, 48 kHz, ~192.00 kbps avg - французский

MediaInfo

Общее
Уникальный идентификатор : 234618825251482812755833683860154950547 (0xB081F12DEA994F749683504F6CEF2393)
Полное имя : F:\My Torrents 3\[apreder]Moments_partages_avec_Patricia_Kaas(20013)DVB.mkv
Формат : Matroska
Версия формата : Version 2
Размер файла : 1,15 Гбайт
Продолжительность : 52 м.
Режим общего битрейта : Переменный
Общий поток : 3133 Кбит/сек
Дата кодирования : UTC 2015-08-08 10:49:04
Программа кодирования : mkvmerge v8.2.0 ('World of Adventure') 64bit
Библиотека кодирования : libebml v1.3.1 + libmatroska v1.4.2
Attachements : cover.jpg / cover_small.jpg
Видео
Идентификатор : 1
Формат : MPEG Video
Версия формата : Version 2
Профиль формата : Main@Main
Параметр BVOP формата : Да
Параметр матрицы формата : Выборочная
Параметр GOP формата : M=4, N=12
Format_Settings_PictureStructure : Frame
Идентификатор кодека : V_MPEG2
Идентификатор кодека/Информация : MPEG 1 or 2 Video
Продолжительность : 52 м.
Вид битрейта : Переменный
Битрейт : 2878 Кбит/сек
Ширина : 720 пикселей
Высота : 576 пикселей
Соотношение сторон : 16:9
Режим частоты кадров : Постоянный
Частота кадров : 25,000 кадров/сек
Стандарт вещания : PAL
Цветовое пространство : YUV
Субдискретизация насыщенности : 4:2:0
Битовая глубина : 8 бит
Тип развёртки : Чересстрочная
Порядок развёртки : Верхнее поле первое
Метод сжатия : С потерями
Бит/(Пиксели*Кадры) : 0.278
Временной код первого кадра : 00:00:00:00
Оригинал временного кода : Group of pictures header
Размер потока : 1,05 Гбайт (92%)
Default : Да
Forced : Нет
Аудио
Идентификатор : 2
Формат : MPEG Audio
Версия формата : Version 1
Профиль формата : Layer 2
Режим : Joint stereo
Расширение режима : Intensity Stereo + MS Stereo
Идентификатор кодека : A_MPEG/L2
Идентификатор кодека/Подсказка : MP2
Продолжительность : 52 м.
Вид битрейта : Постоянный
Битрейт : 192 Кбит/сек
Каналы : 2 канала
Частота : 48,0 КГц
Метод сжатия : С потерями
Размер потока : 72,0 Мбайт (6%)
Язык : French
Default : Да
Forced : Нет
Текст #1
Идентификатор : 3
Формат : VobSub
Идентификатор кодека : S_VOBSUB
Идентификатор кодека/Информация : Picture based subtitle format used on DVDs
Язык : Russian
Default : Да
Forced : Нет
Текст #2
Идентификатор : 4
Формат : VobSub
Идентификатор кодека : S_VOBSUB
Идентификатор кодека/Информация : Picture based subtitle format used on DVDs
Язык : English
Default : Нет
Forced : Нет
Текст #3
Идентификатор : 5
Формат : VobSub
Идентификатор кодека : S_VOBSUB
Идентификатор кодека/Информация : Picture based subtitle format used on DVDs
Язык : French
Default : Нет
Forced : Нет
Текст #4
Идентификатор : 6
Формат : VobSub
Идентификатор кодека : S_VOBSUB
Идентификатор кодека/Информация : Picture based subtitle format used on DVDs
Язык : German
Default : Нет
Forced : Нет
Текст #5
Идентификатор : 7
Формат : VobSub
Идентификатор кодека : S_VOBSUB
Идентификатор кодека/Информация : Picture based subtitle format used on DVDs
Язык : Dutch
Default : Нет
Forced : Нет
Текст #6
Идентификатор : 8
Формат : VobSub
Идентификатор кодека : S_VOBSUB
Идентификатор кодека/Информация : Picture based subtitle format used on DVDs
Язык : Romanian
Default : Нет
Forced : Нет

Скриншоты


Резервные скриншоты


-[2'530]
[teatrix.ru].t21951.torrent 
Торрент: Зарегистрирован [ 2016-03-20 12:48 ] · 23569FB5CBA1427D619484A9A5CB40FDC76F2360

Скачать .torrent

Скачать

12 KB

Статус: проверено
Скачан: 0 раз
Размер: 1.15 GB
terms.php



Быстрый ответ

Имя:

      
Для отправки сообщений необходимо включить JavaScript
Показать сообщения:    

Текущее время: 08-Дек 09:06

Часовой пояс: UTC + 3


Вы можете начинать темы
Вы можете отвечать на сообщения
Вы не можете редактировать свои сообщения
Вы не можете удалять свои сообщения
Вы не можете голосовать в опросах
Вы не можете прикреплять файлы к сообщениям
Вы можете скачивать файлы