Максим Горький. Возвращение в ад (Игорь Гелейн) [2011, документальный, биографический, DVB]


Статистика раздачи [Обновить пиров]
Размер:  1.18 GB   |    Зарегистрирован:  8 месяцев 16 дней   |    Скачан:  0 раз

Полного источника не было: Никогда

 
   
 
 
 

[Цитировать]

Максим Горький
Возвращение в ад- Дата/Год выпуска: 2011
Страна: Россия
Жанр: документальный, биографический
Продолжительность: 00:51:40
Перевод: Не требуется
Русские субтитры: нет
Режиссер: Игорь Гелейн
Телеканал: 365 днейОписание: Фильм рассказывает о последних годах Великого русского писателя Максима Горького, трагедия художника, оказавшегося неугодно власти и, в конечном счете, уничтоженном ею. После возвращения Горького, Сталин всячески старался превратить художника, литератора в общественного деятеля, заставляя его, путешествовать по России, выступать перед публикой, которой всячески расхваливала Великого художника слова. Трагическая гибель сына, в которой, как предполагают, принял активное участие Сталин, убийство Кирова, роковым образом сказались и на судьбе самого Горького. По странным стечениям обстоятельств он умер от той же болезни, что и сын его Максим. Победить в игре, затерянным Сталиным великий писатель не смог.
Доп. информация: DVB-S
Участник Фестиваля российского кино "Окно в Европу" (Выборг) 2011.

качество: DVB
формат: MKV
Видео: MPEG Video 2, 720x576@768x576 (4:3), 25 fps, ~3016 kbps avg, 0.291 bit/pixel
Аудио: MPEG Audio 2, 2 ch, 48 kHz, ~192.00 kbps avg

MediaInfo

Общее
Уникальный идентификатор : 192316217364584458765336480055959179434 (0x90AEC1951A3E30B4A4B97248E98750AA)
Полное имя : F:\My Torrents 3\[apreder]Maxime_Gorki_Retour_en_enfer(2011)DVB.mkv
Формат : Matroska
Версия формата : Version 2
Размер файла : 1,18 Гбайт
Продолжительность : 51 м.
Режим общего битрейта : Переменный
Общий поток : 3274 Кбит/сек
Дата кодирования : UTC 2015-08-08 14:19:23
Программа кодирования : mkvmerge v8.2.0 ('World of Adventure') 64bit
Библиотека кодирования : libebml v1.3.1 + libmatroska v1.4.2
Attachements : cover.jpg / cover_small.jpg
Видео
Идентификатор : 1
Формат : MPEG Video
Версия формата : Version 2
Профиль формата : Main@Main
Параметр BVOP формата : Да
Параметр матрицы формата : Выборочная
Параметр GOP формата : M=3, N=36
Format_Settings_PictureStructure : Frame
Идентификатор кодека : V_MPEG2
Идентификатор кодека/Информация : MPEG 1 or 2 Video
Продолжительность : 51 м.
Вид битрейта : Переменный
Битрейт : 3016 Кбит/сек
Ширина : 720 пикселей
Высота : 576 пикселей
Соотношение сторон : 4:3
Режим частоты кадров : Постоянный
Частота кадров : 25,000 кадров/сек
Стандарт вещания : PAL
Цветовое пространство : YUV
Субдискретизация насыщенности : 4:2:0
Битовая глубина : 8 бит
Тип развёртки : Чересстрочная
Порядок развёртки : Верхнее поле первое
Метод сжатия : С потерями
Бит/(Пиксели*Кадры) : 0.291
Временной код первого кадра : 00:00:00:00
Оригинал временного кода : Group of pictures header
Размер потока : 1,09 Гбайт (92%)
Default : Да
Forced : Нет
Аудио
Идентификатор : 2
Формат : MPEG Audio
Версия формата : Version 1
Профиль формата : Layer 2
Идентификатор кодека : A_MPEG/L2
Идентификатор кодека/Подсказка : MP2
Продолжительность : 51 м.
Вид битрейта : Постоянный
Битрейт : 192 Кбит/сек
Каналы : 2 канала
Частота : 48,0 КГц
Метод сжатия : С потерями
Размер потока : 71,0 Мбайт (6%)
Язык : Russian
Default : Да
Forced : Нет

Скриншоты

Резервные скриншоты

-[2'531]
[teatrix.ru].t21952.torrent 
Торрент: Зарегистрирован [ 2016-03-20 12:48 ] · 18331B4EFA52815FBAD98F44D897776052D5908F

Скачать .torrent

Скачать

12 KB

Статус: проверено
Скачан: 0 раз
Размер: 1.18 GB
terms.php



Быстрый ответ

Имя:

      
Для отправки сообщений необходимо включить JavaScript
Показать сообщения:    

Текущее время: 05-Дек 15:30

Часовой пояс: UTC + 3


Вы можете начинать темы
Вы можете отвечать на сообщения
Вы не можете редактировать свои сообщения
Вы не можете удалять свои сообщения
Вы не можете голосовать в опросах
Вы не можете прикреплять файлы к сообщениям
Вы можете скачивать файлы