(Opera) Richard Wagner - Die Walkure - Rudolf Moralt & Wiener Symphoniker, Konetzni,Treptow, Braun, Frantz - 2010, FLAC (image+.cue) lossless


 

[Цитировать]

Richard Wagner | Рихард Вагнер
Die Walküre | Валькирия
Rudolf Moralt & Wiener Symphoniker , Wiener Staatsoperhor | Рудольф Моральт, Венский Cимфонический оркестр, хор Венской Государственной Оперы
Жанр: Opera
Страна-производитель диска: Italy
Год издания диска: 2010
Издатель (лейбл): MYTO
Номер по каталогу: MCD00189
Дата записи: 1949
Аудиокодек: FLAC
Тип рипа: image+.cue
Битрейт аудио: lossless
Продолжительность: 3:42:20
Источник: Demonoid
Наличие сканов в содержимом раздачи: да

Треклист:CD 1
  • 1.Akt 1 - Vorspiel

  • 2.Akt 1 - Szene 1 - Wes' Herd dies auch sei, hier muß ich rasten

  • 3.Akt 1 - Szene 1 - Kühlende Labung gab mir der Quell

  • 4.Akt 1 - Szene 1 - Einen Unseligen labtest du

  • 5.Akt 1 - Szene 2 - Müd' am Herd fand ich den Mann

  • 6.Akt 1 - Szene 2 - Weit her, traun, kamst du des Wegs

  • 7.Akt 1 - Szene 2 - Friedmund darf ich nicht heißen

  • 8.Akt 1 - Szene 2 - Ein starkes Jagen auf uns

  • 9.Akt 1 - Szene 2 - Ein trauriges Kind rief mich zum Trutz

  • 10.Akt 1 - Szene 2 - Ich weiß ein wildes Geschlecht

  • 11.Akt 1 - Szene 3 - Ein Schwert verhieß mir der Vater

  • 12.Akt 1 - Szene 3 - Was gleißt dort hell im Glimmerschein

  • 13.Akt 1 - Szene 3 - Schläfst du, Gast?

  • 14.Akt 1 - Szene 3 - Der Männer Sippe saß hier im Saal

  • 15.Akt 1 - Szene 3 - Dich selige Frau hält nun der Freund

  • 16.Akt 1 - Szene 3 - Winterstürme wichen dem Wonnemond

  • 17.Akt 1 - Szene 3 - Du bist der Lenz, nach dem ich verlangte

  • 18.Akt 1 - Szene 3 - Wie dir die Stirn so offen steht

  • 19.Akt 1 - Szene 3 - Siegmund heiß' ich und Siegmund bin ich

  • 20.Akt 2 - Szene 1 - Vorspiel

  • 21.Akt 2 - Szene 1 - Nun zäume dein Roß

  • 22.Akt 2 - Szene 1 - Der alte Sturm, die alte Müh'!

  • 23.Akt 2 - Szene 1 - So ist es denn aus mit den ewigen Göttern
    CD 2
  • 1.Akt 2 - Szene 1 - Mit tiefem Sinne willst du mich täuschen!

  • 2.Akt 2 - Szene 1 - Du schuf'st ihm die Noth

  • 3.Akt 2 - Szene 1 - Was verlangst du?

  • 4.Akt 2 - Szene 1 - Deiner ew'gen Gattin heilige Ehre

  • 5.Akt 2 - Szene 2 - Schlimm, fürcht ich, schloß der Streit

  • 6.Akt 2 - Szene 2 - Als junger Liebe Lust mir verblich

  • 7.Akt 2 - Szene 2 - Ein Anderes ist's

  • 8.Akt 2 - Szene 2 - Wild durchschweift' ich mit ihm die Wälder

  • 9.Akt 2 - Szene 2 - O sag', künde! Was soll nun dein Kind?

  • 10.Akt 2 - Szene 2 - So sah ich Siegvater nie

  • 11.Akt 2 - Szene 3 - Raste nun hier gönne dir Ruh'!

  • 12.Akt 2 - Szene 3 - Hinweg! Hinweg! Flieh' die Entweihte!

  • 13.Akt 2 - Szene 3 - Horch! Die Hörner, hörst du den Ruf?

  • 14.Akt 2 - Szene 4 - Siegmund, sieh auf mich!

  • 15.Akt 2 - Szene 4 - Wer bist du, sag', die so schön und ernst mir erscheint?

  • 16.Akt 2 - Szene 4 - Der dir nun folgt, wohin führst du den Helden?

  • 17.Akt 2 - Szene 4 - So grüße mir Walhall, grüße mir Wotan

  • 18.Akt 2 - Szene 4 - So jung und schön erschimmerst du mir

  • 19.Akt 2 - Szene 5 - Zauberfest bezähmt dein Schlaf

  • 20.Akt 2 - Szene 5 - Kehrte der Vater nur heim!

  • 21.Akt 2 - Szene 5 - Zu Roß, daß ich dich rette!
    CD 3
  • 1.Akt 3 - Szene 1 - Hojotoho! Hojotoho!

  • 2.Akt 3 - Szene 1 - Zu Ortlindes

  • 3.Akt 3 - Szene 1 - Schützt mich und helft

  • 4.Akt 3 - Szene 1 - Nicht sehre dich Sorge um mich

  • 5.Akt 3 - Szene 1 - Fort denn

  • 6.Akt 3 - Szene 2 - Wo ist Brünnhild'

  • 7.Akt 3 - Szene 2 - Weichherziges Weibergezücht!

  • 8.Akt 3 - Szene 2 - Hier bin ich, Vater

  • 9.Akt 3 - Szene 2 - Hörtet ihr nicht

  • 10.Akt 3 - Szene 3 - War es so schmählich

  • 11.Akt 3 - Szene 3 - Nicht weise bin ich

  • 12.Akt 3 - Szene 3 - So tatest du

  • 13.Akt 3 - Szene 3 - Wohl taugte dir nicht

  • 14.Akt 3 - Szene 3 - In festen Schlaf

  • 15.Akt 3 - Szene 3 - Leb' wohl

  • 16.Akt 3 - Szene 3 - Der Augen leuchtendes Paar

  • 17.Akt 3 - Szene 3 - Loge, hör'!

  • 18.Akt 3 - Szene 3 - Wer meines Speeres

    Исполнители:

    Conductor - Rudolf Moralt
    Wiener Symphoniker
    Chor der Wiener Staatsoper
    Siegmund - Gunther Treptow
    Sieglinde - Hilde Konetzni
    Wotan - Ferdinand Frantz
    Brunnhilde - Helena Braun
    Hunding - Herbert Alsen
    Fricka - Rosette Anday
    Gerhilde - Judith Hellwig
    Ortlinde - Ester Rethy
    Waltraute - Rosette Anday
    Schwertleite - Alice Ostrowsky
    Helmwige - Ilona Steingruber
    Siegrune - Gertrude Burgstaller-Schuster
    Grimgerde - Dagmar Hermann
    Roßweiße - Else Schurhoff

    ОтчётCD1

    CUERipper v2.1.4 Copyright (C) 2008-12 Grigory Chudov
    Extraction logfile from : 07/22/2015 12:30:43
    Used drive : PLDS - DVD-ROM DH-16D5S
    Read offset correction : 6
    Read command : BEh, 12h, BEh, 16 blocks at a time
    Secure mode : 0
    Disk length : 79:11:10
    AccurateRip : disk not present in database
    TOC of the extracted CD
    Track | Start | Length | Start sector | End sector
    ---------------------------------------------------------
    1 | 0:00.00 | 3:53.27 | 0 | 17501
    2 | 3:53.27 | 4:07.50 | 17502 | 36076
    3 | 8:01.02 | 4:36.00 | 36077 | 56776
    4 | 12:37.02 | 4:00.50 | 56777 | 74826
    5 | 16:37.52 | 2:30.25 | 74827 | 86101
    6 | 19:08.02 | 2:16.00 | 86102 | 96301
    7 | 21:24.02 | 3:20.40 | 96302 | 111341
    8 | 24:44.42 | 3:44.23 | 111342 | 128164
    9 | 28:28.65 | 3:30.25 | 128165 | 143939
    10 | 31:59.15 | 5:41.12 | 143940 | 169526
    11 | 37:40.27 | 3:10.38 | 169527 | 183814
    12 | 40:50.65 | 3:04.61 | 183815 | 197675
    13 | 43:55.51 | 0:58.51 | 197676 | 202076
    14 | 44:54.27 | 4:24.50 | 202077 | 221926
    15 | 49:19.02 | 1:15.24 | 221927 | 227575
    16 | 50:34.26 | 2:45.36 | 227576 | 239986
    17 | 53:19.62 | 3:21.53 | 239987 | 255114
    18 | 56:41.40 | 4:14.37 | 255115 | 274201
    19 | 60:56.02 | 3:35.00 | 274202 | 290326
    20 | 64:31.02 | 2:05.25 | 290327 | 299726
    21 | 66:36.27 | 2:48.38 | 299727 | 312364
    22 | 69:24.65 | 4:53.12 | 312365 | 334351
    23 | 74:18.02 | 4:53.08 | 334352 | 356334
    Track | Pregap | Indexes
    ---------------------------------------------------------
    1 | 00:02:00 | 1
    2 | 00:00:00 | 1
    3 | 00:00:00 | 1
    4 | 00:00:00 | 1
    5 | 00:00:00 | 1
    6 | 00:00:00 | 1
    7 | 00:00:00 | 1
    8 | 00:00:00 | 1
    9 | 00:00:00 | 1
    10 | 00:00:00 | 1
    11 | 00:00:00 | 1
    12 | 00:00:00 | 1
    13 | 00:00:00 | 1
    14 | 00:00:00 | 1
    15 | 00:00:00 | 1
    16 | 00:00:00 | 1
    17 | 00:00:00 | 1
    18 | 00:00:00 | 1
    19 | 00:00:00 | 1
    20 | 00:00:00 | 1
    21 | 00:00:00 | 1
    22 | 00:00:00 | 1
    23 | 00:00:00 | 1
    Destination files
    C:\Users\a\Music\Richard Wagner\1949 - Ring des Nibelungen (1948-49 Moralt) - CD03 - Walkьre - CD1\Richard Wagner - Ring des Nibelungen (1948-49 Moralt) - CD03 - Walkьre - CD1.flac
    [CTDB TOCID: ztH8vTEaMx5g_J6eSW7fa0YRRxw-] found.
    Track | CTDB Status
    1 | (1/1) Accurately ripped
    2 | (1/1) Accurately ripped
    3 | (1/1) Accurately ripped
    4 | (1/1) Accurately ripped
    5 | (1/1) Accurately ripped
    6 | (1/1) Accurately ripped
    7 | (1/1) Accurately ripped
    8 | (1/1) Accurately ripped
    9 | (1/1) Accurately ripped
    10 | (1/1) Accurately ripped
    11 | (1/1) Accurately ripped
    12 | (1/1) Accurately ripped
    13 | (1/1) Accurately ripped
    14 | (1/1) Accurately ripped
    15 | (1/1) Accurately ripped
    16 | (1/1) Accurately ripped
    17 | (1/1) Accurately ripped
    18 | (1/1) Accurately ripped
    19 | (1/1) Accurately ripped
    20 | (1/1) Accurately ripped
    21 | (1/1) Accurately ripped
    22 | (1/1) Accurately ripped
    23 | (1/1) Accurately ripped
    AccurateRip summary
    [AccurateRip ID: 0041db8a-043ab02a-64128f17] disk not present in database.
    Track Peak [ CRC32 ] [W/O NULL]
    -- 100.0 [91AD197C] [15E93ABD]
    01 96.4 [447FAB0A] [66355E60]
    02 94.0 [8852D737] [64DEF6F7]
    03 99.7 [3D58C192] [365B97E3]
    04 96.3 [BA1191A2] [48B491D0]
    05 73.9 [112A9E3F] [EDD53D2B]
    06 99.9 [F66E86D5] [0A223794]
    07 99.9 [E20A90A2] [4949F402]
    08 80.1 [D217CF77] [B17D166A]
    09 75.1 [1819BA24] [E7B37B3E]
    10 99.6 [71BE6542] [7C3FEAB8]
    11 95.5 [BB2B1A19] [99A8639B]
    12 93.2 [FCA6A172] [FD5A76BC]
    13 98.7 [EA08B85C] [69F8BB8E]
    14 84.5 [F1747E13] [649E1623]
    15 96.6 [3BAB7F33] [C45CCB9A]
    16 100.0 [6F47415B] [E5417412]
    17 99.8 [62A656A1] [B0F91EFB]
    18 100.0 [EAB3FB12] [8587187D]
    19 99.9 [17F56732] [63C91316]
    20 100.0 [0EC02B06] [339D91DB]
    21 99.9 [DB9596A9] [1F752AB4]
    22 75.7 [5C98BD1C] [C211C2DD]
    23 91.6 [52F413C5] [A88D8680]
    End of status report

    CD2

    CUERipper v2.1.4 Copyright (C) 2008-12 Grigory Chudov
    Extraction logfile from : 07/22/2015 12:35:59
    Used drive : PLDS - DVD-ROM DH-16D5S
    Read offset correction : 6
    Read command : BEh, 12h, BEh, 16 blocks at a time
    Secure mode : 0
    Disk length : 74:13:69
    AccurateRip : disk not present in database
    TOC of the extracted CD
    Track | Start | Length | Start sector | End sector
    ---------------------------------------------------------
    1 | 0:00.00 | 2:08.14 | 0 | 9613
    2 | 2:08.14 | 2:38.67 | 9614 | 21530
    3 | 4:47.06 | 2:20.65 | 21531 | 32095
    4 | 7:07.71 | 3:03.73 | 32096 | 45893
    5 | 10:11.69 | 5:39.25 | 45894 | 71343
    6 | 15:51.19 | 4:35.50 | 71344 | 92018
    7 | 20:26.69 | 4:43.12 | 92019 | 113255
    8 | 25:10.06 | 5:11.30 | 113256 | 136610
    9 | 30:21.36 | 3:44.49 | 136611 | 153459
    10 | 34:06.10 | 3:16.60 | 153460 | 168219
    11 | 37:22.70 | 3:16.59 | 168220 | 182978
    12 | 40:39.54 | 3:03.73 | 182979 | 196776
    13 | 43:43.52 | 4:06.36 | 196777 | 215262
    14 | 47:50.13 | 2:48.17 | 215263 | 227879
    15 | 50:38.30 | 2:05.30 | 227880 | 237284
    16 | 52:43.60 | 4:17.50 | 237285 | 256609
    17 | 57:01.35 | 4:19.35 | 256610 | 276069
    18 | 61:20.70 | 4:15.13 | 276070 | 295207
    19 | 65:36.08 | 3:05.42 | 295208 | 309124
    20 | 68:41.50 | 2:57.54 | 309125 | 322453
    21 | 71:39.29 | 2:34.40 | 322454 | 334043
    Track | Pregap | Indexes
    ---------------------------------------------------------
    1 | 00:02:00 | 1
    2 | 00:00:00 | 1
    3 | 00:00:00 | 1
    4 | 00:00:00 | 1
    5 | 00:00:00 | 1
    6 | 00:00:00 | 1
    7 | 00:00:00 | 1
    8 | 00:00:00 | 1
    9 | 00:00:00 | 1
    10 | 00:00:00 | 1
    11 | 00:00:00 | 1
    12 | 00:00:00 | 1
    13 | 00:00:00 | 1
    14 | 00:00:00 | 1
    15 | 00:00:00 | 1
    16 | 00:00:00 | 1
    17 | 00:00:00 | 1
    18 | 00:00:00 | 1
    19 | 00:00:00 | 1
    20 | 00:00:00 | 1
    21 | 00:00:00 | 1
    Destination files
    C:\Users\a\Music\Richard Wagner\1949 - Ring des Nibelungen (1948-49 Moralt) - CD04 - Walkьre - CD2\Richard Wagner - Ring des Nibelungen (1948-49 Moralt) - CD04 - Walkьre - CD2.flac
    [CTDB TOCID: fxBeHTQggPiG3IzQhl5v3uKlXy0-] found.
    Track | CTDB Status
    1 | (1/1) Accurately ripped
    2 | (1/1) Accurately ripped
    3 | (1/1) Accurately ripped
    4 | (1/1) Accurately ripped
    5 | (1/1) Accurately ripped
    6 | (1/1) Accurately ripped
    7 | (1/1) Accurately ripped
    8 | (1/1) Accurately ripped
    9 | (1/1) Accurately ripped
    10 | (1/1) Accurately ripped
    11 | (1/1) Accurately ripped
    12 | (1/1) Accurately ripped
    13 | (1/1) Accurately ripped
    14 | (1/1) Accurately ripped
    15 | (1/1) Accurately ripped
    16 | (1/1) Accurately ripped
    17 | (1/1) Accurately ripped
    18 | (1/1) Accurately ripped
    19 | (1/1) Accurately ripped
    20 | (1/1) Accurately ripped
    21 | (1/1) Accurately ripped
    AccurateRip summary
    [AccurateRip ID: 00386c4c-0369b91b-0d116515] disk not present in database.
    Track Peak [ CRC32 ] [W/O NULL]
    -- 99.9 [EDF55E8F] [520E3DE0]
    01 99.9 [9E4C42A5] [9137FDC5]
    02 85.4 [D9E6A3C7] [E184E3C3]
    03 98.4 [2BD9A573] [5E2EDF13]
    04 73.3 [C4908FB9] [95C19997]
    05 96.7 [AA26BCC5] [B33E8C30]
    06 83.9 [DC8E2297] [9E04D060]
    07 99.9 [8432B795] [A7102B38]
    08 99.9 [3E56D95F] [634A2633]
    09 99.9 [E641361A] [5DA990DC]
    10 79.0 [7EA28160] [E9FF1E4D]
    11 96.7 [70982738] [CD0D2BA2]
    12 86.6 [292C0703] [95A9B13B]
    13 99.9 [0407E471] [4EEB9838]
    14 38.0 [487C37A0] [8FFBC491]
    15 44.8 [3B8BA67C] [6A02F732]
    16 74.7 [26030BC0] [E86F70B4]
    17 85.9 [F1A48222] [CD759469]
    18 89.4 [C4EB1578] [9BA5F29E]
    19 89.6 [6A791F2F] [CF0531B6]
    20 97.3 [0BA55CF0] [1A21D768]
    21 99.9 [C091EA75] [31E7677D]
    End of status report

    CD3

    CUERipper v2.1.4 Copyright (C) 2008-12 Grigory Chudov
    Extraction logfile from : 07/22/2015 13:08:51
    Used drive : PLDS - DVD-ROM DH-16D5S
    Read offset correction : 6
    Read command : BEh, 12h, BEh, 16 blocks at a time
    Secure mode : 0
    Disk length : 68:55:62
    AccurateRip : disk not present in database
    TOC of the extracted CD
    Track | Start | Length | Start sector | End sector
    ---------------------------------------------------------
    1 | 0:00.00 | 2:33.65 | 0 | 11539
    2 | 2:33.65 | 5:40.73 | 11540 | 37112
    3 | 8:14.63 | 3:27.69 | 37113 | 52706
    4 | 11:42.57 | 3:21.06 | 52707 | 67787
    5 | 15:03.63 | 2:55.48 | 67788 | 80960
    6 | 17:59.36 | 1:36.00 | 80961 | 88160
    7 | 19:35.36 | 3:06.27 | 88161 | 102137
    8 | 22:41.63 | 5:03.62 | 102138 | 124924
    9 | 27:45.50 | 4:43.26 | 124925 | 146175
    10 | 32:29.01 | 3:44.03 | 146176 | 162978
    11 | 36:13.04 | 5:02.25 | 162979 | 185653
    12 | 41:15.29 | 3:51.67 | 185654 | 203045
    13 | 45:07.21 | 5:26.36 | 203046 | 227531
    14 | 50:33.57 | 2:33.33 | 227532 | 239039
    15 | 53:07.15 | 4:50.21 | 239040 | 260810
    16 | 57:57.36 | 6:20.18 | 260811 | 289328
    17 | 64:17.54 | 1:56.06 | 289329 | 298034
    18 | 66:13.60 | 2:42.02 | 298035 | 310186
    Track | Pregap | Indexes
    ---------------------------------------------------------
    1 | 00:02:00 | 1
    2 | 00:00:00 | 1
    3 | 00:00:00 | 1
    4 | 00:00:00 | 1
    5 | 00:00:00 | 1
    6 | 00:00:00 | 1
    7 | 00:00:00 | 1
    8 | 00:00:00 | 1
    9 | 00:00:00 | 1
    10 | 00:00:00 | 1
    11 | 00:00:00 | 1
    12 | 00:00:00 | 1
    13 | 00:00:00 | 1
    14 | 00:00:00 | 1
    15 | 00:00:00 | 1
    16 | 00:00:00 | 1
    17 | 00:00:00 | 1
    18 | 00:00:00 | 1
    Destination files
    C:\Users\a\Music\Richard Wagner\1949 - Ring des Nibelungen (1948-49 Moralt) - CD05 - Walkьre - CD3\Richard Wagner - 1949 - Ring des Nibelungen (1948-49 Moralt) - CD05 - Walkьre - CD3.flac
    [CTDB TOCID: KlFe7mbx6sscD7keXS4XSNlJJ_U-] found.
    Track | CTDB Status
    1 | (1/1) Accurately ripped
    2 | (1/1) Accurately ripped
    3 | (1/1) Accurately ripped
    4 | (1/1) Accurately ripped
    5 | (1/1) Accurately ripped
    6 | (1/1) Accurately ripped
    7 | (1/1) Accurately ripped
    8 | (1/1) Accurately ripped
    9 | (1/1) Accurately ripped
    10 | (1/1) Accurately ripped
    11 | (1/1) Accurately ripped
    12 | (1/1) Accurately ripped
    13 | (1/1) Accurately ripped
    14 | (1/1) Accurately ripped
    15 | (1/1) Accurately ripped
    16 | (1/1) Accurately ripped
    17 | (1/1) Accurately ripped
    18 | (1/1) Accurately ripped
    AccurateRip summary
    [AccurateRip ID: 002c11ba-0252a795-22102712] disk not present in database.
    Track Peak [ CRC32 ] [W/O NULL]
    -- 99.9 [258D1A34] [DABF690A]
    01 97.2 [0BD1E19E] [80B9905B]
    02 74.9 [ADCDD046] [E6DC1FF9]
    03 95.1 [B437A075] [A81D695D]
    04 99.9 [31C95F23] [486C1885]
    05 99.9 [8F3D4456] [3181F1ED]
    06 89.2 [4BC9B5BD] [6170E9DB]
    07 67.0 [24CC163C] [73723E72]
    08 88.4 [EAC73198] [2DC7C648]
    09 96.6 [E3FF740B] [60E763D1]
    10 77.1 [0568F0AA] [638F4896]
    11 82.7 [11D85CA6] [97CE9E04]
    12 71.5 [E420DCE1] [7A1A890E]
    13 99.9 [D499EADF] [705A2E1D]
    14 91.3 [43CC7F1F] [4188343B]
    15 98.2 [FAE53BAB] [51B7A2DC]
    16 79.3 [BB62B912] [B0C259E6]
    17 90.6 [FF36C1E5] [4F7A6DAF]
    18 83.7 [4B7D16C2] [62BE5C28]
    End of status report

    Отчёт CUEToolsCD1

    [CUETools log; Date: 22/07/2015 12:30:43; Version: 2.1.4]
    [CTDB TOCID: ztH8vTEaMx5g_J6eSW7fa0YRRxw-] found.
    Track | CTDB Status
    1 | (1/1) Accurately ripped
    2 | (1/1) Accurately ripped
    3 | (1/1) Accurately ripped
    4 | (1/1) Accurately ripped
    5 | (1/1) Accurately ripped
    6 | (1/1) Accurately ripped
    7 | (1/1) Accurately ripped
    8 | (1/1) Accurately ripped
    9 | (1/1) Accurately ripped
    10 | (1/1) Accurately ripped
    11 | (1/1) Accurately ripped
    12 | (1/1) Accurately ripped
    13 | (1/1) Accurately ripped
    14 | (1/1) Accurately ripped
    15 | (1/1) Accurately ripped
    16 | (1/1) Accurately ripped
    17 | (1/1) Accurately ripped
    18 | (1/1) Accurately ripped
    19 | (1/1) Accurately ripped
    20 | (1/1) Accurately ripped
    21 | (1/1) Accurately ripped
    22 | (1/1) Accurately ripped
    23 | (1/1) Accurately ripped
    [AccurateRip ID: 0041db8a-043ab02a-64128f17] disk not present in database.
    Track Peak [ CRC32 ] [W/O NULL]
    -- 100,0 [91AD197C] [15E93ABD]
    01 96,4 [447FAB0A] [66355E60]
    02 94,0 [8852D737] [64DEF6F7]
    03 99,7 [3D58C192] [365B97E3]
    04 96,3 [BA1191A2] [48B491D0]
    05 73,9 [112A9E3F] [EDD53D2B]
    06 99,9 [F66E86D5] [0A223794]
    07 99,9 [E20A90A2] [4949F402]
    08 80,1 [D217CF77] [B17D166A]
    09 75,1 [1819BA24] [E7B37B3E]
    10 99,6 [71BE6542] [7C3FEAB8]
    11 95,5 [BB2B1A19] [99A8639B]
    12 93,2 [FCA6A172] [FD5A76BC]
    13 98,7 [EA08B85C] [69F8BB8E]
    14 84,5 [F1747E13] [649E1623]
    15 96,6 [3BAB7F33] [C45CCB9A]
    16 100,0 [6F47415B] [E5417412]
    17 99,8 [62A656A1] [B0F91EFB]
    18 100,0 [EAB3FB12] [8587187D]
    19 99,9 [17F56732] [63C91316]
    20 100,0 [0EC02B06] [339D91DB]
    21 99,9 [DB9596A9] [1F752AB4]
    22 75,7 [5C98BD1C] [C211C2DD]
    23 91,6 [52F413C5] [A88D8680]

    CD2

    [CUETools log; Date: 22/07/2015 12:35:59; Version: 2.1.4]
    [CTDB TOCID: fxBeHTQggPiG3IzQhl5v3uKlXy0-] found.
    Track | CTDB Status
    1 | (1/1) Accurately ripped
    2 | (1/1) Accurately ripped
    3 | (1/1) Accurately ripped
    4 | (1/1) Accurately ripped
    5 | (1/1) Accurately ripped
    6 | (1/1) Accurately ripped
    7 | (1/1) Accurately ripped
    8 | (1/1) Accurately ripped
    9 | (1/1) Accurately ripped
    10 | (1/1) Accurately ripped
    11 | (1/1) Accurately ripped
    12 | (1/1) Accurately ripped
    13 | (1/1) Accurately ripped
    14 | (1/1) Accurately ripped
    15 | (1/1) Accurately ripped
    16 | (1/1) Accurately ripped
    17 | (1/1) Accurately ripped
    18 | (1/1) Accurately ripped
    19 | (1/1) Accurately ripped
    20 | (1/1) Accurately ripped
    21 | (1/1) Accurately ripped
    [AccurateRip ID: 00386c4c-0369b91b-0d116515] disk not present in database.
    Track Peak [ CRC32 ] [W/O NULL]
    -- 99,9 [EDF55E8F] [520E3DE0]
    01 99,9 [9E4C42A5] [9137FDC5]
    02 85,4 [D9E6A3C7] [E184E3C3]
    03 98,4 [2BD9A573] [5E2EDF13]
    04 73,3 [C4908FB9] [95C19997]
    05 96,7 [AA26BCC5] [B33E8C30]
    06 83,9 [DC8E2297] [9E04D060]
    07 99,9 [8432B795] [A7102B38]
    08 99,9 [3E56D95F] [634A2633]
    09 99,9 [E641361A] [5DA990DC]
    10 79,0 [7EA28160] [E9FF1E4D]
    11 96,7 [70982738] [CD0D2BA2]
    12 86,6 [292C0703] [95A9B13B]
    13 99,9 [0407E471] [4EEB9838]
    14 38,0 [487C37A0] [8FFBC491]
    15 44,8 [3B8BA67C] [6A02F732]
    16 74,7 [26030BC0] [E86F70B4]
    17 85,9 [F1A48222] [CD759469]
    18 89,4 [C4EB1578] [9BA5F29E]
    19 89,6 [6A791F2F] [CF0531B6]
    20 97,3 [0BA55CF0] [1A21D768]
    21 99,9 [C091EA75] [31E7677D]

    CD3

    [CUETools log; Date: 22/07/2015 13:08:51; Version: 2.1.4]
    [CTDB TOCID: KlFe7mbx6sscD7keXS4XSNlJJ_U-] found.
    Track | CTDB Status
    1 | (1/1) Accurately ripped
    2 | (1/1) Accurately ripped
    3 | (1/1) Accurately ripped
    4 | (1/1) Accurately ripped
    5 | (1/1) Accurately ripped
    6 | (1/1) Accurately ripped
    7 | (1/1) Accurately ripped
    8 | (1/1) Accurately ripped
    9 | (1/1) Accurately ripped
    10 | (1/1) Accurately ripped
    11 | (1/1) Accurately ripped
    12 | (1/1) Accurately ripped
    13 | (1/1) Accurately ripped
    14 | (1/1) Accurately ripped
    15 | (1/1) Accurately ripped
    16 | (1/1) Accurately ripped
    17 | (1/1) Accurately ripped
    18 | (1/1) Accurately ripped
    [AccurateRip ID: 002c11ba-0252a795-22102712] disk not present in database.
    Track Peak [ CRC32 ] [W/O NULL]
    -- 99,9 [258D1A34] [DABF690A]
    01 97,2 [0BD1E19E] [80B9905B]
    02 74,9 [ADCDD046] [E6DC1FF9]
    03 95,1 [B437A075] [A81D695D]
    04 99,9 [31C95F23] [486C1885]
    05 99,9 [8F3D4456] [3181F1ED]
    06 89,2 [4BC9B5BD] [6170E9DB]
    07 67,0 [24CC163C] [73723E72]
    08 88,4 [EAC73198] [2DC7C648]
    09 96,6 [E3FF740B] [60E763D1]
    10 77,1 [0568F0AA] [638F4896]
    11 82,7 [11D85CA6] [97CE9E04]
    12 71,5 [E420DCE1] [7A1A890E]
    13 99,9 [D499EADF] [705A2E1D]
    14 91,3 [43CC7F1F] [4188343B]
    15 98,2 [FAE53BAB] [51B7A2DC]
    16 79,3 [BB62B912] [B0C259E6]
    17 90,6 [FF36C1E5] [4F7A6DAF]
    18 83,7 [4B7D16C2] [62BE5C28]



  • Показать сообщения:    

    Текущее время: 03-Дек 12:39

    Часовой пояс: UTC + 3


    Вы не можете начинать темы
    Вы не можете отвечать на сообщения
    Вы не можете редактировать свои сообщения
    Вы не можете удалять свои сообщения
    Вы не можете голосовать в опросах
    Вы не можете прикреплять файлы к сообщениям
    Вы не можете скачивать файлы