Георгий Фиртич. Музыка без правил (Александр Анфёров) [2015, документальный, музыка, DVB]


Статистика раздачи [Обновить пиров]
Размер:  629 MB   |    Зарегистрирован:  8 месяцев 17 дней   |    Скачан:  0 раз

Полного источника не было: Никогда

 
   
 
 
 

[Цитировать]

Георгий Фиртич
Музыка без правил- Дата/Год выпуска: 2015
Страна: Россия
Жанр: документальный, музыка
Продолжительность: 00:32:57
Перевод: Не требуется
Русские субтитры: нет
Режиссер: Александр Анфёров
Телеканал: 365 днейОписание: С детства нам всем знакомы такие шедевры отечественного киноискусства "Приключения капитана Врунгеля", "Доктор Айболит", "Деловые люди", "Золотой телёнок", "Вооружён и очень опасен". В основе этих кинолент лежит великолепная литература К. Чуковского, О. Генри, Ильфа и Петрова, Б. Гарта. Поставлены они великими режиссёрами Д. Черкасским, Л. Гайдаем, М. Швейцером, а музыку к ним написал выдающийся композитор Георгий Фиртич. Но если имена писателей и режиссёров многим хорошо известны, то имя композитора, к сожалению, мало знакомо рядовому зрителю.
Мы задалась целью восстановить историческую справедливость и снять документальный фильм о творчестве Георгия Ивановича Фиртича, члена союза композиторов, заслуженного деятеля искусств России. В основе фильма лежит рассказ Георгия Ивановича о себе, о стране, о советском авангарде в живописи, архитектуре и музыке. А так же зрители впервые увидят фрагменты фильма "Мистерия – буфф", снятого в 1969 году и запрещённого к показу, в котором приняли участие ведущие актёры Театра на Таганке, включая Владимира Высоцкого. (от авторов)
Доп. информация: DVB-S

качество: DVB
формат: MKV
Видео: MPEG Video 2, 720x576@768x576 (4:3), 25 fps, ~2424 kbps avg, 0.234 bit/pixel
Аудио: MPEG Audio 2, 2 ch, 48 kHz, ~192.00 kbps avg

MediaInfo

Общее
Уникальный идентификатор : 214651373551679201289425137797705385207 (0xA17C59CD8CF2C3EF847BC339775644F7)
Полное имя : F:\My Torrents 3\[apreder]Georgi_Firtich(2013)DVB.mkv
Формат : Matroska
Версия формата : Version 2
Размер файла : 629 Мбайт
Продолжительность : 32 м.
Режим общего битрейта : Переменный
Общий поток : 2669 Кбит/сек
Дата кодирования : UTC 2015-08-08 17:32:23
Программа кодирования : mkvmerge v8.2.0 ('World of Adventure') 64bit
Библиотека кодирования : libebml v1.3.1 + libmatroska v1.4.2
Attachements : cover.jpg / cover_small.jpg
Видео
Идентификатор : 1
Формат : MPEG Video
Версия формата : Version 2
Профиль формата : Main@Main
Параметр BVOP формата : Да
Параметр матрицы формата : Выборочная
Параметр GOP формата : Variable
Format_Settings_PictureStructure : Frame
Идентификатор кодека : V_MPEG2
Идентификатор кодека/Информация : MPEG 1 or 2 Video
Продолжительность : 32 м.
Вид битрейта : Переменный
Битрейт : 2424 Кбит/сек
Ширина : 720 пикселей
Высота : 576 пикселей
Соотношение сторон : 4:3
Режим частоты кадров : Постоянный
Частота кадров : 25,000 кадров/сек
Стандарт вещания : PAL
Цветовое пространство : YUV
Субдискретизация насыщенности : 4:2:0
Битовая глубина : 8 бит
Тип развёртки : Чересстрочная
Порядок развёртки : Верхнее поле первое
Метод сжатия : С потерями
Бит/(Пиксели*Кадры) : 0.234
Временной код первого кадра : 00:00:00:00
Оригинал временного кода : Group of pictures header
Размер потока : 571 Мбайт (91%)
Default : Да
Forced : Нет
Аудио
Идентификатор : 2
Формат : MPEG Audio
Версия формата : Version 1
Профиль формата : Layer 2
Идентификатор кодека : A_MPEG/L2
Идентификатор кодека/Подсказка : MP2
Продолжительность : 32 м.
Вид битрейта : Постоянный
Битрейт : 192 Кбит/сек
Каналы : 2 канала
Частота : 48,0 КГц
Метод сжатия : С потерями
Размер потока : 45,3 Мбайт (7%)
Язык : Russian
Default : Да
Forced : Нет

Скриншоты

Резервные скриншоты

-[2'534]
[teatrix.ru].t21955.torrent 
Торрент: Зарегистрирован [ 2016-03-20 12:48 ] · 5EF37CED119E095C8F1050FD3FC391A3EB6A93E2

Скачать .torrent

Скачать

13 KB

Статус: проверено
Скачан: 0 раз
Размер: 629 MB
terms.php



Быстрый ответ

Имя:

      
Для отправки сообщений необходимо включить JavaScript
Показать сообщения:    

Текущее время: 06-Дек 15:13

Часовой пояс: UTC + 3


Вы можете начинать темы
Вы можете отвечать на сообщения
Вы не можете редактировать свои сообщения
Вы не можете удалять свои сообщения
Вы не можете голосовать в опросах
Вы не можете прикреплять файлы к сообщениям
Вы можете скачивать файлы