(classical) Aulis Sallinen - Piano Trio, Cello Sonata, From a Swan Song (Elina Vahala, Arto Noras, Ralf Gothoni) - 2014, FLAC (tracks+.cue) lossless


 

[Цитировать]

Aulis Sallinen - Piano Trio, Cello Sonata, From a Swan Song (Elina Vahala, Arto Noras, Ralf Gothoni)
Жанр: classical
Страна-производитель диска: Germany
Год издания диска: 2014
Издатель (лейбл): CPO
Аудиокодек: FLAC
Тип рипа: tracks+.cue
Битрейт аудио: lossless
Источник: скачано с
Наличие сканов в содержимом раздачи: да
Треклист:
Cello Sonata, Op. 86
1.I. Barcarole, con variazione 5:23
2. II. Serenata 5:58
3. III. Scherzo, quasi l'ultimo tango 3:32
4. IV. Il modo grave e lirico - Epilogo 8:08
5. From a Swan Song, Op. 67 13:30
6. Piano Trio, Op. 96 18:17
Исполнители:
Vahala, Elina-violin
Noras, Arto-cello
Gothoni, Ralf-piano

Лог создания рипа

Exact Audio Copy V1.0 beta 3 from 29. August 2011
EAC extraction logfile from 30. July 2015, 20:12
Sallinen, Aulis / Piano Trio - Cello Sonata - From a Swan Song
Used drive : TSSTcorpCDDVDW SH-S223C Adapter: 0 ID: 1
Read mode : Secure
Utilize accurate stream : Yes
Defeat audio cache : Yes
Make use of C2 pointers : No
Read offset correction : 697
Overread into Lead-In and Lead-Out : No
Fill up missing offset samples with silence : Yes
Delete leading and trailing silent blocks : No
Null samples used in CRC calculations : Yes
Used interface : Native Win32 interface for Win NT & 2000
Gap handling : Appended to previous track
Used output format : User Defined Encoder
Selected bitrate : 1024 kBit/s
Quality : High
Add ID3 tag : No
Command line compressor : C:\Program Files (x86)\Exact Audio Copy\FLAC\FLAC.EXE
Additional command line options : -V -0 -T "Comment=Ripped by Tapaz9/Johnston" -T "artist=%artist%" -T "title=%title%" -T "album=%albumtitle%" -T "date=%year%" -T "tracknumber=%tracknr%" -T "genre=%genre%" %source%
TOC of the extracted CD
Track | Start | Length | Start sector | End sector
---------------------------------------------------------
1 | 0:00.00 | 5:23.58 | 0 | 24282
2 | 5:23.58 | 5:58.33 | 24283 | 51165
3 | 11:22.16 | 3:30.65 | 51166 | 66980
4 | 14:53.06 | 8:08.22 | 66981 | 103602
5 | 23:01.28 | 13:30.66 | 103603 | 164418
6 | 36:32.19 | 18:17.69 | 164419 | 246762
Track 1
Filename F:\Musique\Sallinen, Aulis\Sallinen_CelloSonata\01 - Cello Sonata, Op. 86 - I. Barcarole, con variazione.wav
Pre-gap length 0:00:02.00
Peak level 48.9 %
Extraction speed 12.8 X
Track quality 100.0 %
Copy CRC 4AC60354
Copy OK
Track 2
Filename F:\Musique\Sallinen, Aulis\Sallinen_CelloSonata\02 - Cello Sonata, Op. 86 - II. Serenata.wav
Peak level 68.7 %
Extraction speed 12.9 X
Track quality 100.0 %
Copy CRC 8D247E00
Copy OK
Track 3
Filename F:\Musique\Sallinen, Aulis\Sallinen_CelloSonata\03 - Cello Sonata, Op. 86 - III. Scherzo, quasi l'ultimo tango.wav
Peak level 69.4 %
Extraction speed 12.8 X
Track quality 100.0 %
Copy CRC FD5E527F
Copy OK
Track 4
Filename F:\Musique\Sallinen, Aulis\Sallinen_CelloSonata\04 - Cello Sonata, Op. 86 - IV. Il modo grave e lirico - Epilogo.wav
Peak level 80.7 %
Extraction speed 13.4 X
Track quality 100.0 %
Copy CRC 82C39DBA
Copy OK
Track 5
Filename F:\Musique\Sallinen, Aulis\Sallinen_CelloSonata\05 - From a Swan Song, Op. 67.wav
Peak level 74.0 %
Extraction speed 9.5 X
Track quality 100.0 %
Copy CRC E2A0AF72
Copy OK
Track 6
Filename F:\Musique\Sallinen, Aulis\Sallinen_CelloSonata\06 - Piano Trio, Op. 96.wav
Peak level 51.1 %
Extraction speed 13.9 X
Track quality 99.9 %
Copy CRC C2A2C452
Copy OK
No errors occurred
End of status report
==== Log checksum 43FA056A72FDDC84416AA2347DFBC35B85FD6DB6D7AA61A94DC3F873E485AEE6 ====

Содержание индексной карты (.CUE)

REM GENRE Classical
REM DISCID 530CDA06
REM COMMENT "ExactAudioCopy v1.0b3"
FILE "01 - Cello Sonata, Op. 86 - I. Barcarole, con variazione.wav" WAVE
TRACK 01 AUDIO
INDEX 01 00:00:00
FILE "02 - Cello Sonata, Op. 86 - II. Serenata.wav" WAVE
TRACK 02 AUDIO
INDEX 01 00:00:00
FILE "03 - Cello Sonata, Op. 86 - III. Scherzo, quasi l'ultimo tango.wav" WAVE
TRACK 03 AUDIO
INDEX 01 00:00:00
FILE "04 - Cello Sonata, Op. 86 - IV. Il modo grave e lirico - Epilogo.wav" WAVE
TRACK 04 AUDIO
INDEX 01 00:00:00
FILE "05 - From a Swan Song, Op. 67.wav" WAVE
TRACK 05 AUDIO
INDEX 01 00:00:00
FILE "06 - Piano Trio, Op. 96.wav" WAVE
TRACK 06 AUDIO
INDEX 01 00:00:00



Показать сообщения:    

Текущее время: 04-Дек 15:16

Часовой пояс: UTC + 3


Вы не можете начинать темы
Вы не можете отвечать на сообщения
Вы не можете редактировать свои сообщения
Вы не можете удалять свои сообщения
Вы не можете голосовать в опросах
Вы не можете прикреплять файлы к сообщениям
Вы не можете скачивать файлы