(classical) Aulis Sallinen - Chamber Music III, VI and V (Ralf Gothoni, Arto Noras,Mika Vayrynen,Virtuosi di Kuhmo, Ralf Gothoni) - 2006, FLAC (image+.cue) lossless


 

[Цитировать]

Aulis Sallinen - Chamber Music III, VI and V (Ralf Gothoni, Arto Noras,Mika Vayrynen,Virtuosi di Kuhmo, Ralf Gothoni)
Жанр: classical
Страна-производитель диска: Germany
Год издания диска: 2006
Издатель (лейбл): CPO
Аудиокодек: FLAC
Тип рипа: image+.cue
Битрейт аудио: lossless
Источник: скачано с
Наличие сканов в содержимом раздачи: да
Треклист:
1. Introduction and Tango Overture, Op. 74b 10:14
2. Chamber Music III, Op. 58, "The Nocturnal Dances of Don Juanquijote" 20:06
3. Elegy for Sebastian Knight, Op. 10 4:25
4. Chamber Music IV, Op. 79, "Metamophoses of Elegy for Sebastian Knight" 16:57
5. Chamber Music V, Op. 80, "Barabbas Variations" 20:57
Исполнители:
Gothoni, Ralf-piano
Noras, Arto-cello
Vayrynen, Mika-accordion
Virtuosi di Kuhmo-Ensemble
Gothoni, Ralf-Conductor

Содержание индексной карты (.CUE)

REM GENRE Classical
REM DATE 2006
REM DISCID 2F112305
REM COMMENT "ExactAudioCopy v0.99pb5"
PERFORMER "Virtuosi di Kuhmo unter Ralf Gothуni - Piano: Ralf Gothуni - Violoncello: Art..."
TITLE "Sallinen - Chamber Musics III, IV & V"
FILE "Virtuosi di Kuhmo unter Ralf Gothуni - Piano Ralf Gothуni - Violoncello Arto Noras - Accordeon Mika Vдyrynen - Sallinen - Chamber Musics III, IV & V.flac" WAVE
TRACK 01 AUDIO
TITLE "Sallinen, Aulis - Introduction and Tango Overture Op.74b (1997)"
PERFORMER "Virtuosi di Kuhmo unter Ralf Gothуni - Piano: Ralf Gothуni - Violoncello: Art..."
INDEX 01 00:00:00
TRACK 02 AUDIO
TITLE "Sallinen, Aulis - Chamber Music III ' The Nocturnal Dances of Don Juanquijote..."
PERFORMER "Virtuosi di Kuhmo unter Ralf Gothуni - Piano: Ralf Gothуni - Violoncello: Art..."
INDEX 00 10:15:28
INDEX 01 10:21:27
TRACK 03 AUDIO
TITLE "Sallinen, Aulis - Elegy for Sebastian Knight Op.10 (1964)"
PERFORMER "Virtuosi di Kuhmo unter Ralf Gothуni - Piano: Ralf Gothуni - Violoncello: Art..."
INDEX 00 30:29:49
INDEX 01 30:34:56
TRACK 04 AUDIO
TITLE "Sallinen, Aulis - Chamber Music IV 'Metamorphoses of Elegy for Sebastian Knig..."
PERFORMER "Virtuosi di Kuhmo unter Ralf Gothуni - Piano: Ralf Gothуni - Violoncello: Art..."
INDEX 00 34:59:73
INDEX 01 35:04:73
TRACK 05 AUDIO
TITLE "Sallinen, Aulis - Chamber Music V 'Barabbas Variations' Op.80 (2000)"
PERFORMER "Virtuosi di Kuhmo unter Ralf Gothуni - Piano: Ralf Gothуni - Violoncello: Art..."
INDEX 00 52:03:61
INDEX 01 52:08:59

Лог проверки качества

AUDIOCHECKER v2.0 beta (build 457) - by Dester - opdester@freemail.hu
~~~~~~~~~~~~~~~~~~~~~~~~~~~~~~~~~~
Начато: вторник, 08. 09. 2015. - 11:44.23
Найдено файлов: 1
1 -===- L:\Razdachi\Sallinen - (2006) - Chamber music (CPO)\Virtuosi di Kuhmo unter Ralf Gothуni - Piano Ralf Gothуni - Violoncello Arto Noras - Accordeon Mika Vдyrynen - Sallinen - Chamber Musics III, IV & V.flac
Извлечение успешно выполнено
Заключение: этот трек - CDDA с вероятностью 99%
Временный файл удалён.
Завершено: вторник, 08. 09. 2015. - 11:52.15 (Время операции: 0:07.52)



Показать сообщения:    

Текущее время: 04-Дек 13:16

Часовой пояс: UTC + 3


Вы не можете начинать темы
Вы не можете отвечать на сообщения
Вы не можете редактировать свои сообщения
Вы не можете удалять свои сообщения
Вы не можете голосовать в опросах
Вы не можете прикреплять файлы к сообщениям
Вы не можете скачивать файлы