(Baroque Vocal) Mozart - Concert Arias I (Franchine van der Heyden - European Sinfonietta, Ed Spanjaard) - 2005, APE (image+.cue) lossless


 

[Цитировать]

Wolfgang Amadeus Mozart - Concert Arias I
Жанр: Baroque Vocal
Страна-производитель диска: EU
Год издания диска: 2005
Издатель (лейбл): Brilliant
Номер по каталогу: 99731/1
Дата записи: 2002
Аудиокодек: APE
Тип рипа: image+.cue
Битрейт аудио: lossless
Продолжительность: 49'30
Источник: собственный рип
Наличие сканов в содержимом раздачи: да
Треклист:
1. Der Liebe himmlisches Gefühl, KV 110
2. Vorrei spiergarvi, oh Dio, KV 418
3. Cara, se le mie pene, KV deest
4. Se tutti i mali mieie, KV 83
5. Alcandro, li confesso...Non so d'onde viene, KV 294
6. Se ardire, e speranza, KV 82
7. Ah, spiegarti, oh Dio, KV 178
Исполнители:
Franchine van der Heyden, soprano
European Sinfonietta
Ed Spanjaard, conductor

Лог создания рипа

Exact Audio Copy V1.0 beta 3 from 29. August 2011
EAC extraction logfile from 22. October 2013, 22:34
Mozart / Concert Arias I, Spanjaard 2002
Used drive : TSSTcorpCDDVDW SE-208AB Adapter: 1 ID: 0
Read mode : Secure
Utilize accurate stream : Yes
Defeat audio cache : Yes
Make use of C2 pointers : No
Read offset correction : 6
Overread into Lead-In and Lead-Out : No
Fill up missing offset samples with silence : Yes
Delete leading and trailing silent blocks : No
Null samples used in CRC calculations : Yes
Used interface : Native Win32 interface for Win NT & 2000
Used output format : Monkey's Audio Lossless Encoder
Selected bitrate : High Lossless Compression
Quality : High
Add ID3 tag : Yes
Command line compressor : K:\Program Files (x86)\Exact Audio Copy\Monkeys Audio\Monkey's Audio\MAC.exe
Additional command line options : -6 -V -T "ARTIST=%artist%" -T "TITLE=%title%" -T "ALBUM=%albumtitle%" -T "DATE=%year%" -T "TRACKNUMBER=%tracknr%" -T "GENRE=%genre%" -T "COMMENT=%comment%" -T "BAND=%albuminterpret%" -T "ALBUMARTIST=%albuminterpret%" -T "COMPOSER=%composer%" %haslyrics%--tag-from-file=LYRICS="%lyricsfile%"%haslyrics% -T "DISCNUMBER=%cdnumber%" -T "TOTALDISCS=%totalcds%" -T "TOTALTRACKS=%numtracks%" %hascover%--picture="%coverfile%"%hascover% %source% -o %dest%
TOC of the extracted CD
Track | Start | Length | Start sector | End sector
---------------------------------------------------------
1 | 0:00.00 | 6:07.45 | 0 | 27569
2 | 6:07.45 | 6:13.21 | 27570 | 55565
3 | 12:20.66 | 9:41.34 | 55566 | 99174
4 | 22:02.25 | 7:51.37 | 99175 | 134536
5 | 29:53.62 | 9:24.39 | 134537 | 176875
6 | 39:18.26 | 6:42.42 | 176876 | 207067
7 | 46:00.68 | 3:14.28 | 207068 | 221645
Range status and errors
Selected range
Filename I:\Foobar-EAC\Mozart - Concert Arias I, Spanjaard 2002.wav
Peak level 89.0 %
Extraction speed 4.2 X
Range quality 100.0 %
Test CRC B8003019
Copy CRC B8003019
Copy OK
No errors occurred
AccurateRip summary
Track 1 accurately ripped (confidence 11) [F458C084] (AR v2)
Track 2 accurately ripped (confidence 11) [B66F54C4] (AR v2)
Track 3 accurately ripped (confidence 11) [136CB97A] (AR v2)
Track 4 accurately ripped (confidence 11) [AC456C70] (AR v2)
Track 5 accurately ripped (confidence 11) [F4877019] (AR v2)
Track 6 accurately ripped (confidence 11) [4E4FAE6B] (AR v2)
Track 7 accurately ripped (confidence 11) [EDF9A121] (AR v2)
All tracks accurately ripped
End of status report
---- CUETools DB Plugin V2.1.3
[CTDB TOCID: Ov_i01pIDxmKXzcjYMiFgVzn3wc-] found, Submit result: Ov_i01pIDxmKXzcjYMiFgVzn3wc- has been confirmed
[4c49bdea] (78/78) Accurately ripped
==== Log checksum E10DB75BC0ED52C517F9EC954A064F54633F4A2911736587257DD7D3492E9CBE ====

Содержание индексной карты (.CUE)

REM GENRE Vocal
REM DATE 2002
REM DISCID 5D0B8B07
REM COMMENT "ExactAudioCopy v1.0b3"
PERFORMER "Mozart"
TITLE "Concert Arias I, Spanjaard 2002"
FILE "Mozart - Concert Arias I, Spanjaard 2002.ape" WAVE
TRACK 01 AUDIO
TITLE "Der Liebe himmlisches Gefühl, KV 110"
PERFORMER "Mozart"
ISRC PPPPP0000000
INDEX 01 00:00:00
TRACK 02 AUDIO
TITLE "Vorrei spiergarvi, oh Dio, KV 418"
PERFORMER "Mozart"
ISRC PPPPP0000000
INDEX 01 06:07:45
TRACK 03 AUDIO
TITLE "Cara, se le mie pene, KV deest"
PERFORMER "Mozart"
ISRC PPPPP0000000
INDEX 01 12:20:66
TRACK 04 AUDIO
TITLE "Se tutti i mali mieie, KV 83"
PERFORMER "Mozart"
ISRC PPPPP0000000
INDEX 01 22:02:25
TRACK 05 AUDIO
TITLE "Alcandro, li confesso...Non so d'onde viene, KV 294"
PERFORMER "Mozart"
ISRC PPPPP0000000
INDEX 01 29:53:62
TRACK 06 AUDIO
TITLE "Se ardire, e speranza, KV 82"
PERFORMER "Mozart"
ISRC PPPPP0000000
INDEX 01 39:18:26
TRACK 07 AUDIO
TITLE "Ah, spiegarti, oh Dio, KV 178"
PERFORMER "Mozart"
ISRC PPPPP0000000
INDEX 01 46:00:68



Показать сообщения:    

Текущее время: 03-Дек 22:48

Часовой пояс: UTC + 3


Вы не можете начинать темы
Вы не можете отвечать на сообщения
Вы не можете редактировать свои сообщения
Вы не можете удалять свои сообщения
Вы не можете голосовать в опросах
Вы не можете прикреплять файлы к сообщениям
Вы не можете скачивать файлы