Необходимое зло: Супер-злодеи комиксов DC / Necessary Evil: Super-Villains of DC Comics (Scott Devine, J.M. Kenny / Скотт Дивайн, Дж. Кенни) [2013, документальный, BDRip]


Статистика раздачи [Обновить пиров]
Размер:  1.12 GB   |    Зарегистрирован:  8 месяцев 19 дней   |    Скачан:  0 раз

Полного источника не было: Никогда

 
   
 
 
 

[Цитировать]

Необходимое зло: Супер-злодеи комиксов DC / Necessary Evil: Super-Villains of DC Comics
Дата/Год выпуска: 2013
Страна: США
Жанр: документальный
Продолжительность: 01:39:09
Перевод: Одноголосый закадровый
Доп. инфо о переводе: Andi
Русские субтитры: нет
Оригинальная аудиодорожка: английский
Режиссер: Scott Devine, J.M. Kenny / Скотт Дивайн, Дж. Кенни
Описание: Документальный фильм, рассказывающий о роли злодеев в комиксах, исследующий их мотивы и связи с героями.
Сэмпл: http://multi-up.com/1061957
качество: BDRip
формат: MKV
Видео: 720*404, 23.976 fps, 1 202 Kbps
Аудио: AC-3, 192 Kbps, 2Ch, 48.0 KHz-русский
Аудио 2: AC-3, 192 Kbps, 2Ch, 48.0 KHz -английский

MediaInfo

General
Unique ID : 171006740427498185631123861257233673056 (0x80A6B340D72A8D0580749ADEE1F4AB60)
Complete name : E:\Necessary.Evil.Super-Villains.Of.DC.Comics.2013.BRRip.XviD (VO Andi).mkv
Format : Matroska
Format version : Version 2
File size : 1.12 GiB
Duration : 1h 39mn
Overall bit rate : 1 618 Kbps
Encoded date : UTC 2015-08-09 07:34:11
Writing application : mkvmerge v4.0.0 ('The Stars were mine') сборка от Jun 6 2010 16:18:42
Writing library : libebml v1.0.0 + libmatroska v1.0.0
Video
ID : 1
Format : MPEG-4 Visual
Format profile : Advanced Simple@L5
Format settings, BVOP : 5
Format settings, QPel : No
Format settings, GMC : No warppoints
Format settings, Matrix : Default (H.263)
Codec ID : V_MS/VFW/FOURCC / XVID
Codec ID/Hint : XviD
Bit rate : 1 202 Kbps
Width : 720 pixels
Height : 404 pixels
Display aspect ratio : 16:9
Original display aspect rat : 16:9
Frame rate mode : Variable
Original frame rate : 23.976 fps
Color space : YUV
Chroma subsampling : 4:2:0
Bit depth : 8 bits
Scan type : Progressive
Compression mode : Lossy
Writing library : XviD 64
Default : Yes
Forced : No
Audio #1
ID : 2
Format : AC-3
Format/Info : Audio Coding 3
Mode extension : CM (complete main)
Format settings, Endianness : Big
Codec ID : A_AC3
Duration : 1h 39mn
Bit rate mode : Constant
Bit rate : 192 Kbps
Channel(s) : 2 channels
Channel positions : Front: L R
Sampling rate : 48.0 KHz
Compression mode : Lossy
Stream size : 136 MiB (12%)
Title : VO Andi
Language : Russian
Default : Yes
Forced : No
Audio #2
ID : 3
Format : AC-3
Format/Info : Audio Coding 3
Mode extension : CM (complete main)
Format settings, Endianness : Big
Codec ID : A_AC3
Duration : 1h 39mn
Bit rate mode : Constant
Bit rate : 192 Kbps
Channel(s) : 2 channels
Channel positions : Front: L R
Sampling rate : 48.0 KHz
Compression mode : Lossy
Stream size : 136 MiB (12%)
Default : No
Forced : No

Скриншоты

[teatrix.ru].t21959.torrent 
Торрент: Зарегистрирован [ 2016-03-20 12:48 ] · 851C269A31E78D731E9024987F3772E1D09BCF08

Скачать .torrent

Скачать

12 KB

Статус: проверено
Скачан: 0 раз
Размер: 1.12 GB
terms.php



Показать сообщения:    

Текущее время: 09-Дек 10:49

Часовой пояс: UTC + 3


Вы не можете начинать темы
Вы не можете отвечать на сообщения
Вы не можете редактировать свои сообщения
Вы не можете удалять свои сообщения
Вы не можете голосовать в опросах
Вы не можете прикреплять файлы к сообщениям
Вы можете скачивать файлы