(Ballet) Ballet Music - Adam • Bayer • Berlioz • Glinka • Massenet (Prague Festival Orch., Urbanek / Bulgarian Radio Symph. Orch., Angelov / Hungarian State Orch., Fischer) - 2003, APE (image+.cue) lossless


 

[Цитировать]

Romantic Ballet Music - Adam • Bayer • Berlioz • Glinka • Massenet
Жанр: Ballet
Страна-производитель диска: Germany
Год издания диска: 2003
Издатель (лейбл): Delta Music
Номер по каталогу: 18 305
Дата записи: 2003
Аудиокодек: APE
Тип рипа: image+.cue
Битрейт аудио: lossless
Продолжительность: 67'12
Источник: собственный рип
Наличие сканов в содержимом раздачи: да
Треклист /Исполнители :
Adam - Giselle
1. Introduction
2. Les vendageurs
3. Entrée du Prince
4. Scène d'amour, Loys seul et entree de Giselle
5. Retour de vendageurs - Valse
6. Pas de deux
7. Final
Prague Festival Orchestra, Pavel Urbanek
Bayer
8. Die Puppenfee (The Puppet Fairy)
Bulgarian Radio Symphony Orchestra, Stoyan Angelov
Berlioz
9. Tanz der Sylphiden (aus 'Fausts Verdammnis')
Hungarian State Orchestra, Adam Fischer
Glinka
10. Walzer-Fantasie
Plovdiv Philharmonic Orchestra, Ruslan Raychev
Massenet
11. Ballet Musik (aus 'Thais')
Prague Festival Orchestra, Pavel Urbanek

Лог создания рипа

Exact Audio Copy V1.0 beta 3 from 29. August 2011
EAC extraction logfile from 1. February 2015, 14:56
Ballet Music / Adam•Bayer•Berlioz•Glinka•Massenet
Used drive : TSSTcorpCDDVDW SE-208AB Adapter: 1 ID: 0
Read mode : Secure
Utilize accurate stream : Yes
Defeat audio cache : Yes
Make use of C2 pointers : No
Read offset correction : 6
Overread into Lead-In and Lead-Out : No
Fill up missing offset samples with silence : Yes
Delete leading and trailing silent blocks : No
Null samples used in CRC calculations : Yes
Used interface : Native Win32 interface for Win NT & 2000
Used output format : Monkey's Audio Lossless Encoder
Selected bitrate : High Lossless Compression
Quality : High
Add ID3 tag : Yes
Command line compressor : C:\Program Files (x86)\Exact Audio Copy\MAC\MAC.exe
TOC of the extracted CD
Track | Start | Length | Start sector | End sector
---------------------------------------------------------
1 | 0:00.37 | 2:27.58 | 37 | 11119
2 | 2:28.20 | 0:59.60 | 11120 | 15604
3 | 3:28.05 | 1:22.65 | 15605 | 21819
4 | 4:50.70 | 4:46.52 | 21820 | 43321
5 | 9:37.47 | 3:35.15 | 43322 | 59461
6 | 13:12.62 | 3:01.18 | 59462 | 73054
7 | 16:14.05 | 7:02.32 | 73055 | 104736
8 | 23:16.37 | 25:48.00 | 104737 | 220836
9 | 49:04.37 | 2:24.00 | 220837 | 231636
10 | 51:28.37 | 8:25.00 | 231637 | 269511
11 | 59:53.37 | 7:19.23 | 269512 | 302459
Range status and errors
Selected range
Filename D:\EAC\Ballet Music - Adam•Bayer•Berlioz•Glinka•Massenet.wav
Peak level 100.0 %
Extraction speed 4.6 X
Range quality 99.9 %
Test CRC CBC04A52
Copy CRC CBC04A52
Copy OK
No errors occurred
AccurateRip summary
Track 1 accurately ripped (confidence 1) [5BA8A526] (AR v1)
Track 2 accurately ripped (confidence 1) [FDFD2C1F] (AR v1)
Track 3 accurately ripped (confidence 1) [FF79E96A] (AR v1)
Track 4 accurately ripped (confidence 1) [E9A9C32D] (AR v1)
Track 5 accurately ripped (confidence 1) [3522A2F9] (AR v1)
Track 6 accurately ripped (confidence 1) [409DFA3C] (AR v1)
Track 7 accurately ripped (confidence 1) [6CD03608] (AR v1)
Track 8 accurately ripped (confidence 1) [637AB934] (AR v1)
Track 9 accurately ripped (confidence 1) [0F0D8CAF] (AR v1)
Track 10 accurately ripped (confidence 1) [4AB3698E] (AR v1)
Track 11 accurately ripped (confidence 1) [2A699D05] (AR v1)
All tracks accurately ripped
End of status report
---- CUETools DB Plugin V2.1.3
[CTDB TOCID: KPGqjoWJQfR00ja.rrYo2zMxFIc-] found, Submit result: discs with pregaps not supported in this protocol version
[1a6b1aa3] (1/1) Differs in 0 samples @
You can use CUETools to repair this rip.
==== Log checksum 8F2ADBF4C0F7AB104D8520E131B1104D9CE864B907C9B762F2C16B6595F7E18B ====

Содержание индексной карты (.CUE)

REM GENRE Ballet
REM DATE 2003
REM DISCID A30FC00B
REM COMMENT "ExactAudioCopy v1.0b3"
PERFORMER "Ballet Music"
TITLE "Adam•Bayer•Berlioz•Glinka•Massenet"
FILE "Ballet Music - Adam•Bayer•Berlioz•Glinka•Massenet.ape" WAVE
TRACK 01 AUDIO
TITLE "Introduction, Adam: Giselle (Highlights)"
PERFORMER "Academy of St Martin in the Fields"
INDEX 00 00:00:00
INDEX 01 00:00:37
TRACK 02 AUDIO
TITLE "Les vendageurs, Adam: Giselle (Highlights)"
PERFORMER "Academy of St Martin in the Fields"
INDEX 01 02:28:20
TRACK 03 AUDIO
TITLE "Entrée du Prince, Adam: Giselle (Highlights)"
PERFORMER "Academy of St Martin in the Fields"
INDEX 01 03:28:05
TRACK 04 AUDIO
TITLE "Scène d'amour, Adam: Giselle (Highlights) Loys seul et entree de Giselle"
PERFORMER "Academy of St Martin in the Fields"
INDEX 01 04:50:70
TRACK 05 AUDIO
TITLE "Retour de vendageurs - Valse, Adam: Giselle (Highlights)"
PERFORMER "Academy of St Martin in the Fields"
INDEX 01 09:37:47
TRACK 06 AUDIO
TITLE "Pas de deux, Adam: Giselle (Highlights)"
PERFORMER "Academy of St Martin in the Fields"
INDEX 01 13:12:62
TRACK 07 AUDIO
TITLE "Final, Adam: Giselle (Highlights)"
PERFORMER "Academy of St Martin in the Fields"
INDEX 01 16:14:05
TRACK 08 AUDIO
TITLE "Die Puppenfee, Bayer: The Puppet Fairy"
PERFORMER "Sinfonieorchester des Bulgarischen Rundfunks"
INDEX 00 23:10:50
INDEX 01 23:16:37
TRACK 09 AUDIO
TITLE "Tanz der Sylphiden (aus 'Fausts Verdammnis'), Berlioz: Op.24"
PERFORMER "Ungarische Nationalphilharmonie"
INDEX 00 48:58:47
INDEX 01 49:04:37
TRACK 10 AUDIO
TITLE "Walzer-Fantasie, Glinka"
PERFORMER "Philharmonisches Orchester Plovdiv"
INDEX 00 51:24:47
INDEX 01 51:28:37
TRACK 11 AUDIO
TITLE "Ballet Musik (aus 'Thais'), Massenet"
PERFORMER "Academy of St Martin in the Fields"
INDEX 00 59:48:32
INDEX 01 59:53:37



Показать сообщения:    

Текущее время: 08-Дек 01:18

Часовой пояс: UTC + 3


Вы не можете начинать темы
Вы не можете отвечать на сообщения
Вы не можете редактировать свои сообщения
Вы не можете удалять свои сообщения
Вы не можете голосовать в опросах
Вы не можете прикреплять файлы к сообщениям
Вы не можете скачивать файлы