(Sefardi) Memoria Sefardi: Musique d'Espagne juive et chretienne (Ensemble Constantinople) - 2002, WavPack (image+.cue) lossless


 

[Цитировать]

ConstantinopleMemoria Sefardí Жанр: Sefardí
Страна-производитель диска: Canada
Год издания диска: 2002
Издатель (лейбл): Atma classique
Номер по каталогу: ACD 2 2274
Дата записи: December 3-5, 2001
Аудиокодек: WavPack
Тип рипа: image+.cue
Битрейт аудио: lossless
Продолжительность: 64:05
Источник: собственный рип
Наличие сканов в содержимом раздачи: да

Треклист

01. Ya soi desposado / Oy comamos y bebamos - Cancionero Musical de Palacio (CMP) [6:24]
02. El rey que muncha madruga - Smyrne [3:25]
03. Abenamar - Maroc / La rosa enflorence - Espagne [7:28]
04. Hija mia mi querida - Rhodes [3:45]
05. La cantiga de la Ley - Rhodes [1:52]
06. Puncha puncha - Alexandrie / Istanbul [4:24]
07. Aman minoush - Istanbul [6:03]
08. El rey de francia - Smyrne [4:29]
09. Avrid migalanica - Cassaba [3:48]
10. El regateode las - Rhodes [4:04]
11. La vida es un passahe - Maroc [5:37]
12. Las compras del Rabiner - Maroc [1:54]
13. Si abra - (CMP) [4:23]
14. El cervel mi fa Nocte idie - (CMP) [3:09]
15. Jançu Janto - (CMP) [3:21]

Исполнители

Ensemble Constantinople:
Kiya Tabassian: sétar / setar
Guy Ross: vihuela, oud / 'ud, harpe médiévale / medieval harp
Isabelle Marchand: viole de gambe / viola da gamba, vièle / fiddle
Matthew Jennejohn: flûtes à bec / recorders, cornetto
Ziya Tabassian: tombak, dayereh, def

log EAC

Exact Audio Copy V0.99 prebeta 5 from 4. May 2009
Отчёт EAC об извлечении, выполненном 27. июля 2015, 17:13
Constantinople / Memoria Sefardi
Дисковод: PIONEER DVD-RW DVR-219L Adapter: 1 ID: 1
Режим чтения : Достоверность
Использование точного потока : Да
Отключение кэша аудио : Да
Использование указателей C2 : Нет
Коррекция смещения при чтении : 6
Способность читать области Lead-in и Lead-out : Нет
Заполнение пропущенных сэмплов тишиной : Да
Удаление блоков с тишиной в начале и конце : Нет
При вычислениях CRC использовались нулевые сэмплы : Да
Интерфейс : Встроенный Win32-интерфейс для Win NT/2000
Выходной формат : Внутренние WAV-операции
Формат сэмплов : 44.100 Гц; 16 бит; стерео
TOC извлечённого CD
Трек | Старт | Длительность | Начальный сектор | Конечный сектор
---------------------------------------------------------------------
1 | 0:00.00 | 6:23.60 | 0 | 28784
2 | 6:23.60 | 3:24.50 | 28785 | 44134
3 | 9:48.35 | 7:28.35 | 44135 | 77769
4 | 17:16.70 | 3:45.02 | 77770 | 94646
5 | 21:01.72 | 1:52.33 | 94647 | 103079
6 | 22:54.30 | 4:23.52 | 103080 | 122856
7 | 27:18.07 | 6:02.45 | 122857 | 150051
8 | 33:20.52 | 4:28.43 | 150052 | 170194
9 | 37:49.20 | 3:47.57 | 170195 | 187276
10 | 41:37.02 | 4:03.50 | 187277 | 205551
11 | 45:40.52 | 5:37.08 | 205552 | 230834
12 | 51:17.60 | 1:54.02 | 230835 | 239386
13 | 53:11.62 | 4:23.33 | 239387 | 259144
14 | 57:35.20 | 3:08.42 | 259145 | 273286
15 | 60:43.62 | 3:21.33 | 273287 | 288394
Характеристики диапазона извлечения и сообщения об ошибках
Выбранный диапазон
Имя файла C:\Documents and Settings\Agni\Мои документы\EAC\Constantinople - Memoria Sefardi.wav
Пиковый уровень 99.8 %
Качество диапазона 100.0 %
CRC теста 01837966
CRC копии 01837966
Копирование... OK
Ошибок не произошло
AccurateRip: сводка
Трек 1 точное извлечение (доверие 1) [A3E0BC7F]
Трек 2 точное извлечение (доверие 1) [584C9407]
Трек 3 точное извлечение (доверие 1) [755891E2]
Трек 4 точное извлечение (доверие 1) [7A5EC364]
Трек 5 точное извлечение (доверие 1) [FB99F71A]
Трек 6 точное извлечение (доверие 1) [A6F7D5A2]
Трек 7 точное извлечение (доверие 1) [ADC28207]
Трек 8 точное извлечение (доверие 1) [9BC3CE3F]
Трек 9 точное извлечение (доверие 1) [2E8CBC71]
Трек 10 точное извлечение (доверие 1) [EFD3A005]
Трек 11 точное извлечение (доверие 1) [02591DBD]
Трек 12 точное извлечение (доверие 1) [8B567514]
Трек 13 точное извлечение (доверие 1) [03010C72]
Трек 14 точное извлечение (доверие 1) [9B5C9B38]
Трек 15 точное извлечение (доверие 1) [ABDC4EFA]
Все треки извлечены точно
Конец отчёта



Показать сообщения:    

Текущее время: 06-Дек 13:12

Часовой пояс: UTC + 3


Вы не можете начинать темы
Вы не можете отвечать на сообщения
Вы не можете редактировать свои сообщения
Вы не можете удалять свои сообщения
Вы не можете голосовать в опросах
Вы не можете прикреплять файлы к сообщениям
Вы не можете скачивать файлы