(Medieval) Chastelain de Couci, Gontier de Soignies, Guiot de Dijon, Peire Vidal, Guy Ross - Li tans nouveaus (Ensemble Constantinople & Anne Azema) - 2003, WavPack (image+.cue) lossless


 

[Цитировать]

ConstantinopleAnne Azéma
Li tans nouveaus
Жанр: Medieval
Страна-производитель диска: Canada
Год издания диска: 2003
Издатель (лейбл): Atma classique
Номер по каталогу: ACD 2 2290
Дата записи: October 4, 6 & 7, 2002 and January 7, 2003
Аудиокодек: WavPack
Тип рипа: image+.cue
Битрейт аудио: lossless
Продолжительность: 65:56
Источник: собственный рип
Наличие сканов в содержимом раздачи: да

Треклист

01. La Septime Estampie (instrumental) - Anonyme [5:04]
02. Li nouviauz tans et mais et violete (chanson d'amour) - Chastelain de Couci (v.1165-1203) [6:51]
03. La Quinte Estampie (instrumental) - Anonyme [2:42]
04. Magdalena (instrumental) - Guy Ross [4:24]
05. Li tans nouveaus et la douçors (rotrouenge) - Gontier de Soignies (fl avant 1220) [5:56]
06. Hermins (instrumental) - Guy Ross [5:26]
07. Chanterai pour mon corage (chanson de croisade) - Guiot de Dijon (fl 1215-1225) [5:26]
08. Dança Amorosa (instrumental) - Anonyme [2:54]
09. Pois tornatz sui em Proenza (canso) - Peire Vidal (fl v.1175-v.1210) [6:15]
10. Trotto (instrumental) - Anonyme [2:11]
11. Anc no mori per aamor ni per al (canso) - Peire Vidal [9:37]
12. Istanpitta in Pro (instrumental) - Anonyme [8:41]

Исполнители

Anne Azéma: soprano
Ensemble Constantinople:
Kiya Tabassian: sétar / setar
Guy Ross: luth, oud, harpe / lute, 'ud, harp
Isabelle Marchand: vièle / fiddle
Matthew Jennejohn: flûtes à bec, cornet muet / recorders, mute cornett
Ziya Tabassian: def, tombak, dayereh, vase, percussion

log EAC

Exact Audio Copy V0.99 prebeta 5 from 4. May 2009
Отчёт EAC об извлечении, выполненном 28. июля 2015, 19:33
Constantinople & Anne Azema / Li Tans Nouveaus
Дисковод: PIONEER DVD-RW DVR-219L Adapter: 1 ID: 1
Режим чтения : Достоверность
Использование точного потока : Да
Отключение кэша аудио : Да
Использование указателей C2 : Нет
Коррекция смещения при чтении : 6
Способность читать области Lead-in и Lead-out : Нет
Заполнение пропущенных сэмплов тишиной : Да
Удаление блоков с тишиной в начале и конце : Нет
При вычислениях CRC использовались нулевые сэмплы : Да
Интерфейс : Встроенный Win32-интерфейс для Win NT/2000
Выходной формат : Внутренние WAV-операции
Формат сэмплов : 44.100 Гц; 16 бит; стерео
TOC извлечённого CD
Трек | Старт | Длительность | Начальный сектор | Конечный сектор
---------------------------------------------------------------------
1 | 0:00.00 | 5:03.40 | 0 | 22764
2 | 5:03.40 | 6:50.40 | 22765 | 53554
3 | 11:54.05 | 2:41.65 | 53555 | 65694
4 | 14:35.70 | 4:23.55 | 65695 | 85474
5 | 18:59.50 | 5:55.47 | 85475 | 112146
6 | 24:55.22 | 5:26.03 | 112147 | 136599
7 | 30:21.25 | 5:56.12 | 136600 | 163311
8 | 36:17.37 | 2:53.65 | 163312 | 176351
9 | 39:11.27 | 6:15.35 | 176352 | 204511
10 | 45:26.62 | 2:11.20 | 204512 | 214356
11 | 47:38.07 | 9:37.25 | 214357 | 257656
12 | 57:15.32 | 8:40.58 | 257657 | 296714
Характеристики диапазона извлечения и сообщения об ошибках
Выбранный диапазон
Имя файла C:\Documents and Settings\Agni\Мои документы\EAC\Constantinople & Anne Azema - Li Tans Nouveaus.wav
Пиковый уровень 92.5 %
Качество диапазона 99.9 %
CRC теста BFB3FE3A
CRC копии BFB3FE3A
Копирование... OK
Ошибок не произошло
AccurateRip: сводка
Трек 1 точность не определена (достоверность 1) [0282613F], AccurateRip вернул [2E38395C]
Трек 2 точность не определена (достоверность 1) [825321A0], AccurateRip вернул [DE2B8F2F]
Трек 3 точность не определена (достоверность 1) [D74DD276], AccurateRip вернул [E9354E9E]
Трек 4 точность не определена (достоверность 1) [EB0697F6], AccurateRip вернул [EDFE042C]
Трек 5 точность не определена (достоверность 1) [B74D1F6A], AccurateRip вернул [6A03E42A]
Трек 6 точность не определена (достоверность 1) [5A393CEF], AccurateRip вернул [E7C36AAB]
Трек 7 точность не определена (достоверность 1) [C76C8060], AccurateRip вернул [4A90D007]
Трек 8 точность не определена (достоверность 1) [A0CA0134], AccurateRip вернул [458AD659]
Трек 9 точность не определена (достоверность 1) [260307FF], AccurateRip вернул [3919E79B]
Трек 10 точность не определена (достоверность 1) [599FCFA6], AccurateRip вернул [3DFDFE4F]
Трек 11 точность не определена (достоверность 1) [4127F6A4], AccurateRip вернул [14326899]
Трек 12 точность не определена (достоверность 1) [0A570C74], AccurateRip вернул [F310042A]
Ни один трек не прошёл проверки на точность
В вашей базе может быть иной вариант штамповки диска
Конец отчёта



Показать сообщения:    

Текущее время: 03-Дек 20:38

Часовой пояс: UTC + 3


Вы не можете начинать темы
Вы не можете отвечать на сообщения
Вы не можете редактировать свои сообщения
Вы не можете удалять свои сообщения
Вы не можете голосовать в опросах
Вы не можете прикреплять файлы к сообщениям
Вы не можете скачивать файлы