(Medieval) Alfonso X el Sabio: Cantigas de Extremadura (Musica Antigua, dir. Eduardo Paniagua) - 2002, WavPack (image+.cue) lossless


 

[Цитировать]

Cantigas de Extremadura
Alfonso X el Sabio 1221-1284
Eduardo Paniagua
Жанр: Medieval
Страна-производитель диска: Spain
Год издания диска: 2002
Издатель (лейбл): Pneuma
Номер по каталогу: PN-420
Дата записи: March 2002
Аудиокодек: WavPack
Тип рипа: image+.cue
Битрейт аудио: lossless
Продолжительность: 74:23
Источник: собственный рип
Наличие сканов в содержимом раздачи: да

Треклист

01. CSM 144: El Toro de Plasencia «Con razon é d'averen gran pavor» [8:12]
Canto 1, 2 y 3, corneta, órgano portatil, salterio, cítola, fídula, flauta, tombak y atabal
02. CSM 334: El Loco del Aroche «De regorgir ome morto» [6:02]
Canto 2 y coro, salterio, cítola, viola de teclas, darbuga, dumbek, tar y gong
03. CSM 199: El Pellejero de Terena «Com' é o mund' avondado» [6:56]
Canto 3, 2 y coro, chirimía, órgano portatil, cítola, fídula, flauta, tombak y cántara
04. CSM 326: Ladrones de Colmenas «A Santa Maria muito ll'é greu» [8:38]
Canto 1 y 2, coro, laúd, salterio, viola de teclas, fídula, flauta, tombak y gong
05. CSM 329: Moro de Tudía «Muito per é gran dereito» [11:03]
Canto 2, 3 y coro, órgano portatil, corneta, salterio, fhal, laúd, fídula, cántara, palmas y tintinábulo
06. CSM 325: Cautiva de Tánger (Instrumental) [2:01]
Flautas pastoriles, tamburelo, daff y dumbek
07. CSM 197: Resurrección de un Niño «Como quer que gran poder» [8:26]
Canto 3, 2 y 1, órgano portatil, laúd, fídula, flautas y campanil
08. CSM 319: La Manceba Rabiosa «Quen quer mui ben pod' a Virgen groriosa» [7:45]
Canto 1 y coro, laúd, salamilla, órgano portatil, salterio, tamburelo, semillas y címbalo
09. CSM 213: Enemigo por Celos «Quen serve Santa Maria» [9:32]
Canto 2 y coro, salterio, fhal, laúd, órgano portatil, corneta, tambor de madera, pandereta y atabal
10. CSM 198: Paz Entre Enemigos «Muitas vezes volv' o demo» [5:49]
Canto 1, coro, laúd, salterio, viola de teclas, corneta, fhal, daff y sonajas
CSM: Cantiga de Santa María (Numeradas por W. Mettmann)

Исполнители

MÚSICA ANTIGUA • Director: Eduardo Paniagua
Henar Alvarez: Canto soprano 1 y coro
Cesar Carazo: Canto tenor 2, fídula y coro
Pedro Alarraga: Canro barítono 3 y coro
Felipe Sánchez: Laúd y cítola
Javier Coble: Órgano portatil y viola de teclas
Manuel Pascual: Corneta
David Mayoral: Darbuga, tombak, dumbek, atabal, tamburelo, daff, pandereta, cántara, campanil, semillas y címbalos
Eduardo Paniagua: Salterio, flautas dulces, fhal (flauta metálica árabe), salamilla (flauta de caña), flauta pastoril, chirimía, tar, sonajas, gong, tambor de madera, tintinábulo y palmas

log EAC

Exact Audio Copy V0.99 prebeta 4 from 23. January 2008
Отчёт EAC об извлечении, выполненном 8. августа 2009, 17:40
Eduardo Paniagua / Alfonso X el Sabio: Cantigas de Extremadura
Дисковод: PIONEER DVD-RW DVR-112D Adapter: 0 ID: 1
Режим чтения : Достоверность
Использование точного потока : Да
Отключение кэша аудио : Да
Использование указателей C2 : Нет
Коррекция смещения при чтении : 48
Способность читать области Lead-in и Lead-out : Нет
Заполнение пропущенных сэмплов тишиной : Да
Удаление блоков с тишиной в начале и конце : Нет
При вычислениях CRC использовались нулевые сэмплы : Да
Интерфейс : Встроенный Win32-интерфейс для Win NT/2000
Выходной формат : Внутренние WAV-операции
Формат сэмплов : 44.100 Гц; 16 бит; стерео
TOC извлечённого CD
Трек | Старт | Длительность | Начальный сектор | Конечный сектор
---------------------------------------------------------------------
1 | 0:00.00 | 8:11.70 | 0 | 36894
2 | 8:11.70 | 6:01.61 | 36895 | 64030
3 | 14:13.56 | 6:56.00 | 64031 | 95230
4 | 21:09.56 | 8:38.03 | 95231 | 134083
5 | 29:47.59 | 11:02.52 | 134084 | 183785
6 | 40:50.36 | 2:01.29 | 183786 | 192889
7 | 42:51.65 | 8:26.20 | 192890 | 230859
8 | 51:18.10 | 7:44.41 | 230860 | 265700
9 | 59:02.51 | 9:32.05 | 265701 | 308605
10 | 68:34.56 | 5:48.57 | 308606 | 334762
Характеристики диапазона извлечения и сообщения об ошибках
Выбранный диапазон
Имя файла C:\Documents and Settings\Индра\Мои документы\Моя музыка\Eduardo Paniagua - Cantigas de Extremadura.wav
Пиковый уровень 96.9 %
Качество диапазона 100.0 %
CRC теста BF8BACB0
CRC копии BF8BACB0
Копирование... OK
Ошибок не произошло
AccurateRip: сводка
Трек 1 точное извлечение (доверие 1) [2F3A058E]
Трек 2 точное извлечение (доверие 1) [6979EF06]
Трек 3 точное извлечение (доверие 1) [AD077DF5]
Трек 4 точное извлечение (доверие 1) [A19BEB09]
Трек 5 точное извлечение (доверие 1) [51FBD554]
Трек 6 точное извлечение (доверие 1) [5DBC820B]
Трек 7 точное извлечение (доверие 1) [30F83CA9]
Трек 8 точное извлечение (доверие 1) [11CB7AF9]
Трек 9 точное извлечение (доверие 1) [B27ED61E]
Трек 10 точное извлечение (доверие 1) [01E1680D]
Все треки извлечены точно
Конец отчёта

Audiochecker

AUDIOCHECKER v2.0 beta (build 457) - by Dester - opdester@freemail.hu
~~~~~~~~~~~~~~~~~~~~~~~~~~~~~~~~~~
Начато: суббота, 25. 07. 2015. - 17:49.37
Найдено файлов: 1
1 -===- C:\Documents and Settings\Agni\Мои документы\Foobar\Eduardo Paniagua - Cantigas de Extremadura.wav
Заключение: этот трек - CDDA с вероятностью 100%
Завершено: суббота, 25. 07. 2015. - 17:52.04 (Время операции: 0:02.27)

Audiospectre




Показать сообщения:    

Текущее время: 09-Дек 08:51

Часовой пояс: UTC + 3


Вы не можете начинать темы
Вы не можете отвечать на сообщения
Вы не можете редактировать свои сообщения
Вы не можете удалять свои сообщения
Вы не можете голосовать в опросах
Вы не можете прикреплять файлы к сообщениям
Вы не можете скачивать файлы