[TR24][OF] Wolfgang Amadeus Mozart: Alla Turca (Piano Sonatas) - Aldo Ciccolini - 2011 (Classical)

DL-List and Torrent activity [Update пиров]
Size:  822 MB   |    Registered:  7 months 3 days   |    Completed:  0 times

Seeder not seen: Never



Wolfgang Amadeus Mozart
Alla Turca
Aldo Ciccolini
-Год издания: 2011
Жанр: Classical | Издатель: La Dolce Volta
Продолжительность: 00:53:56
Наличие сканов: Sleeve, Digital Booklet- -Контейнер: FLAC (*.flac) | Тип рипа: tracks
Разрядность: 24bit / 96kHz | Количество каналов: 2.0
Wolfgang Amadeus Mozart (1756 - 1791)
Piano Sonata in A major, K.331
01.I. Andante grazioso (10:35)
02. II. Menuetto (5:18)
03. III. Alla Turca: allegretto (3:37)
Piano Sonata in F major, K.280
04. I. Allegro assai (4:43)
05. II. Adagio (4:32)
06. III. Presto (3:00)
Piano Sonata in B flat major, K333
07. I. Allegro (8:04)
08. II. Andante cantabile (6:06)
09. III. Allegretto grazioso (6:48)
Bonus Track
Das Butterbrot, KV Anh. 284n
10. La Tartine de beurre (1:14)

О релизе

Over the course of his 60-year career Aldo Ciccolini has established an intimate relationship with the great composers. Now aged 85, he takes a fresh look at one of the greatest and says "I understand Mozart now". For this recording Aldo Ciccolini plunged into the past, to his earliest years: he says that with the Bechstein he rediscovers "the sound of my childhood" and that this new energy does justice to the impetuous spirit of an untamed genius. Although he has played and replayed these three sonatas for so many years, they suddenly rise to new heights, borne of a deep relationship between the two masters. It took Mozart 17 years to write these sonatas; it took Ciccolini 85 to transcend them: "I have these three sonatas in me from my soul to my fingertips," he says.
When an 85-year-old pianist says that Mozart helps him to live, you tend to sit up and take notice. Pianist Aldo Ciccolini further says that making these recordings of early Mozart sonatas, using a Bechstein piano, helped him rediscover the enthusiasm for Mozart he felt as an adolescent prior to World War II. And these are indeed unusual Mozart recordings. Asked in the interview-format booklet notes "Are we still in the Classicist spirit here or already in the in the Romantic?" he answered, "Most certainly Romantic!" That gives you the overall flavor of these readings, which feature free tempi, lots of pedal, and in some places (sample the opening movement of the Piano Sonata in A major, K. 331) luxuriant added decoration. These details are not consistently applied, and it's a bit hard to discern a consistent idea, but a pervading spirit of deep lyricism supplies an X factor that keeps you listening through periods such as the oddly abrupt finale of the Piano Sonata in F major, K. 280. Generally speaking, this is not only a trip back to Ciccolini's inward love of Mozart in his youth, but also to the way Mozart was played back then, as a kind of prelude to Beethoven and Schubert. Certainly a must-have for Ciccolini fans, and an intriguing find for anyone interested in the question of late-life creativity. --AllMusic Review by James Manheim
Aldo Ciccolini, piano
Recorded: May 2011, Paris (Église Réformée de l’Annonciation)

ОтчётыДинамический диапазон

foobar2000 1.3.8 / Dynamic Range Meter 1.1.1
log date: 2015-08-09 08:31:15
Analyzed: Aldo Ciccolini / Mozart: Alla Turca
DR Peak RMS Duration Track
DR15 -3.14 dB -23.06 dB 10:35 01-Piano Sonata in A major, K.331 - I. Andante grazioso
DR13 -4.45 dB -21.23 dB 5:18 02-Piano Sonata in A major, K.331 - II. Menuetto
DR14 -0.52 dB -19.02 dB 3:37 03-Piano Sonata in A major, K.331 - III. Alla Turca: allegretto
DR11 -2.50 dB -17.49 dB 4:43 04-Piano Sonata in F major, K.280 - I. Allegro assai
DR14 -5.16 dB -23.81 dB 4:32 05-Piano Sonata in F major, K.280 - II. Adagio
DR12 -1.97 dB -17.22 dB 3:00 06-Piano Sonata in F major, K.280 - III. Presto
DR12 -5.57 dB -21.17 dB 8:04 07-Piano Sonata in B flat major, K333 - I. Allegro
DR13 -8.86 dB -25.10 dB 6:06 08-Piano Sonata in B flat major, K333 - II. Andante cantabile
DR14 -2.83 dB -21.01 dB 6:48 09-Piano Sonata in B flat major, K333 - III. Allegretto grazioso
DR15 -3.50 dB -23.81 dB 1:14 10-Das Butterbrot, KV Anh. 284n - La Tartine de beurre
Number of tracks: 10
Official DR value: DR13
Samplerate: 96000 Hz
Channels: 2
Bits per sample: 24
Bitrate: 2165 kbps
Codec: FLAC

Скриншот спектра частот

Доп. информация

При скачивании, если необходимо, переименуйте папку, в которой будет находиться альбомБольшая просьба к скачавшим поддерживать раздачу! Помогайте другим, ведь вам тоже может понадобиться помощь!Не забываем говорить "Спасибо"!Комментарии приветствуются!
Torrent: Registered [ 2016-03-20 12:48 ] · 275EAD65C293F2D894FBCD6352D38F816966BF9E

Download .torrent


18 KB

Status: checked
Completed: 0 times
Size: 822 MB

Quick Reply


Heads necessary to send messages to enable JavaScript
Display posts:    

Current time is: 24-Oct 01:09

All times are UTC + 3

You can post new topics in this forum
You can reply to topics in this forum
You cannot edit your posts in this forum
You cannot delete your posts in this forum
You cannot vote in polls in this forum
You cannot attach files in this forum
You can download files in this forum